Nazareth – Sound Elixir (Remastered)




Artist: Nazareth
Year: 1983/2002
Genre: Rock
Notes: Discogs
Add. Notes: Remastered
Cover incl.: Yes
Encoder: FLAC
Bitrate: ~900 kBit/s (44.1 kHz/16 Bit/s)
Log & Cue incl.: Yes
Size: 587,84 MB
Password: “slam” (without ” “)


All Downloads/Hosters are compatible

Download 1
Turbobit.net
KatFile.com
Rapidgator.net
Download 2
Turbobit.net
KatFile.com
Rapidgator.net

Tracklist:

1. All Nite Radio 
2. Milk And Honey 
3. Whippin' Boy 
4. Rain On The Window 
5. Backroom Boys 
6. Why Don't You Read The Book? 
7. I Ran 
8. Rags To Riches 
9. Local Still 
10. Where Are You Now 
Bonus Tracks
11. On The Run (B-Side) 
12. Where Are You Now (Alternate Edit) 
13. Milk And Honey (Alternate Edit) 
14. Whippin' Boy (Extended Version) 
15. All Nite Radio (Radio Edit)

EAC-Log, CUE-Sheed & NFO:

Click to open spoiler
Exact Audio Copy V1.1 from 23. June 2015

Отчёт EAC об извлечении, выполненном 18. августа 2016, 10:31

Nazareth / Sound Elixir

Дисковод: TSSTcorpBDDVDW SE-506BB Adapter: 1 ID: 1

Режим чтения : Достоверность
Использование точного потока : Да
Отключение кэша аудио : Да
Использование указателей C2 : Нет

Коррекция смещения при чтении : 6
Способность читать области Lead-in и Lead-out : Нет
Заполнение пропущенных сэмплов тишиной : Да
Удаление блоков с тишиной в начале и конце : Нет
При вычислениях CRC использовались нулевые сэмплы : Да
Интерфейс : Встроенный Win32-интерфейс для Win NT/2000

Выходной формат : Внутренние WAV-операции
Формат сэмплов : 44.100 Гц; 16 бит; стерео

TOC извлечённого CD

Трек | Старт | Длительность | Начальный сектор | Конечный сектор
———————————————————————
1 | 0:00.00 | 4:08.52 | 0 | 18651
2 | 4:08.52 | 4:08.16 | 18652 | 37267
3 | 8:16.68 | 4:45.28 | 37268 | 58670
4 | 13:02.21 | 4:23.65 | 58671 | 78460
5 | 17:26.11 | 3:23.10 | 78461 | 93695
6 | 20:49.21 | 3:45.02 | 93696 | 110572
7 | 24:34.23 | 4:31.15 | 110573 | 130912
8 | 29:05.38 | 3:27.13 | 130913 | 146450
9 | 32:32.51 | 3:32.74 | 146451 | 162424
10 | 36:05.50 | 4:05.12 | 162425 | 180811
11 | 40:10.62 | 3:23.38 | 180812 | 196074
12 | 43:34.25 | 4:32.45 | 196075 | 216519
13 | 48:06.70 | 4:20.66 | 216520 | 236085
14 | 52:27.61 | 5:16.03 | 236086 | 259788
15 | 57:43.64 | 3:11.25 | 259789 | 274138

Характеристики диапазона извлечения и сообщения об ошибках

Выбранный диапазон

Имя файла D:\Temp\Nazareth – 1983 – Sound Elixir [2002 Eagle Records, EAMCD147].wav

Пиковый уровень 90.2 %
Скорость извлечения 4.7 X
Качество диапазона 100.0 %
CRC теста 5417EF4D
CRC копии 5417EF4D
Копирование… OK

Ошибок не произошло

AccurateRip: сводка

Трек 1 : извлечено точно (доверие 5) [6A63809A] (AR v2)
Трек 2 : извлечено точно (доверие 5) [BE73EC0F] (AR v2)
Трек 3 : извлечено точно (доверие 5) [8A4601E8] (AR v2)
Трек 4 : извлечено точно (доверие 5) [6DDF7FD7] (AR v2)
Трек 5 : извлечено точно (доверие 5) [634EB6E6] (AR v2)
Трек 6 : извлечено точно (доверие 5) [72804B9F] (AR v2)
Трек 7 : извлечено точно (доверие 5) [CA2836E0] (AR v2)
Трек 8 : извлечено точно (доверие 5) [FDBA1327] (AR v2)
Трек 9 : извлечено точно (доверие 5) [502F2EB5] (AR v2)
Трек 10 : извлечено точно (доверие 5) [FA712DD8] (AR v2)
Трек 11 : извлечено точно (доверие 3) [07DC5668] (AR v2)
Трек 12 : извлечено точно (доверие 3) [98F8014B] (AR v2)
Трек 13 : извлечено точно (доверие 3) [E02B263A] (AR v2)
Трек 14 : извлечено точно (доверие 3) [35CB1234] (AR v2)
Трек 15 : извлечено точно (доверие 3) [7082BC4A] (AR v2)

Все треки извлечены точно

Конец отчёта

==== Контрольная сумма отчёта 94DEB25045D5286413E581318EE87B13D0F258EB9BBE68CF781A3BAC10D5D4FF ====

REM GENRE “Classic Rock”
REM DATE 1983
REM DISCID E40E470F
REM COMMENT “ExactAudioCopy v1.1”
PERFORMER “Nazareth”
TITLE “Sound Elixir”
FILE “Nazareth – 1983 – Sound Elixir [2002 Eagle Records, EAMCD147].flac” WAVE
TRACK 01 AUDIO
TITLE “All Night Radio”
PERFORMER “Nazareth”
INDEX 01 00:00:00
TRACK 02 AUDIO
TITLE “Milk And Honey”
PERFORMER “Nazareth”
INDEX 01 04:08:52
TRACK 03 AUDIO
TITLE “Whippin’ Boy”
PERFORMER “Nazareth”
INDEX 01 08:16:68
TRACK 04 AUDIO
TITLE “Rain On The Window”
PERFORMER “Nazareth”
INDEX 01 13:02:21
TRACK 05 AUDIO
TITLE “Backroom Boys”
PERFORMER “Nazareth”
INDEX 00 17:25:65
INDEX 01 17:26:11
TRACK 06 AUDIO
TITLE “Why Don’t You Read The Book?”
PERFORMER “Nazareth”
INDEX 01 20:49:21
TRACK 07 AUDIO
TITLE “I Ran”
PERFORMER “Nazareth”
INDEX 00 24:34:02
INDEX 01 24:34:23
TRACK 08 AUDIO
TITLE “Rags To Riches”
PERFORMER “Nazareth”
INDEX 00 29:05:18
INDEX 01 29:05:38
TRACK 09 AUDIO
TITLE “Local Still”
PERFORMER “Nazareth”
INDEX 00 32:32:31
INDEX 01 32:32:51
TRACK 10 AUDIO
TITLE “Where Are You Now”
PERFORMER “Nazareth”
INDEX 00 36:05:30
INDEX 01 36:05:50
TRACK 11 AUDIO
TITLE “On The Run [*][B-side]”
PERFORMER “Nazareth”
INDEX 00 40:01:00
INDEX 01 40:10:62
TRACK 12 AUDIO
TITLE “Where Are You Now [*][alternate edit]”
PERFORMER “Nazareth”
INDEX 00 43:34:04
INDEX 01 43:34:25
TRACK 13 AUDIO
TITLE “Milk And Honey [*][alternate edit]”
PERFORMER “Nazareth”
INDEX 00 48:06:50
INDEX 01 48:06:70
TRACK 14 AUDIO
TITLE “Whippin’ Boy [*][extended version]”
PERFORMER “Nazareth”
INDEX 00 52:26:63
INDEX 01 52:27:61
TRACK 15 AUDIO
TITLE “All Nite Radio [*][radio edit]”
PERFORMER “Nazareth”
INDEX 00 57:43:55
INDEX 01 57:43:64


Leave a Reply

Your email address will not be published. Required fields are marked *

This site uses Akismet to reduce spam. Learn how your comment data is processed.