Nazareth – Sound Elixir (Reissue)




Artist: Nazareth
Year: 1983/1990
Genre: Rock
Notes: Discogs
Add. Notes: Reissue
Cover incl.: Yes
Encoder: FLAC
Bitrate: ~900 kBit/s (44.1 kHz/16 Bit/s)
Log & Cue incl.: Yes
Size: 390 MB
Password: “slam” (without ” “)


All Downloads/Hosters are compatible

Download 1
KatFile.com
Turbobit.net
Rapidgator.net
Download 2
KatFile.com
Turbobit.net
Rapidgator.net

Tracklist:

1. All Nite Radio
2. Milk And Honey  
3. Whippin' Boy  
4. Rain On The Window  
5. Backroom Boys  
6. Why Don't You Read The Book  
7. I Ran  
8. Rags To Riches  
9. Local Still  
10. Where Are You Now

EAC-Log, CUE-Sheed & NFO:

Click to open spoiler
X Lossless Decoder version 20131102 (145.0)

XLD extraction logfile from 2014-01-25 17:15:08 +0300

Nazareth / Sound Elixir (CLACD 218)

Used drive : HL-DT-ST DVDRAM GE20NU11 (revision CN01)
Media type : Pressed CD

Ripper mode : XLD Secure Ripper
Disable audio cache : OK for the drive with a cache less than 1375KiB
Make use of C2 pointers : NO
Read offset correction : 667
Max retry count : 20
Gap status : Analyzed, Appended

TOC of the extracted CD
Track | Start | Length | Start sector | End sector
———————————————————
1 | 00:00:32 | 04:09:10 | 32 | 18716
2 | 04:09:42 | 04:08:38 | 18717 | 37354
3 | 08:18:05 | 04:45:60 | 37355 | 58789
4 | 13:03:65 | 04:24:30 | 58790 | 78619
5 | 17:28:20 | 03:22:05 | 78620 | 93774
6 | 20:50:25 | 03:45:35 | 93775 | 110684
7 | 24:35:60 | 04:31:50 | 110685 | 131059
8 | 29:07:35 | 03:27:35 | 131060 | 146619
9 | 32:34:70 | 03:33:40 | 146620 | 162634
10 | 36:08:35 | 03:54:57 | 162635 | 180241

List of alternate offset correction values
# | Absolute | Relative | Confidence
——————————————
1 | -1392 | -2059 | 2

AccurateRip Summary (DiscID: 000f8aa3-007b7a94-7a09630a)
Track 01 : OK (v1+v2, confidence 12/14)
Track 02 : OK (v1+v2, confidence 12/14)
Track 03 : OK (v1+v2, confidence 12/14)
Track 04 : OK (v1+v2, confidence 12/14)
Track 05 : OK (v1+v2, confidence 12/14)
Track 06 : OK (v1+v2, confidence 12/14)
Track 07 : OK (v1+v2, confidence 12/14)
Track 08 : OK (v1+v2, confidence 12/14)
Track 09 : OK (v1+v2, confidence 12/14)
Track 10 : OK (v1+v2, confidence 13/15)
->All tracks accurately ripped.

All Tracks
Filename : /Nazareth discography/1983. Nazareth – Sound Elixir (Castle Com., CLACD 218, UK)/Nazareth – Sound Elixir (CLACD 218).flac
Album gain : -2.08 dB
Peak : 1.000000
CRC32 hash (test run) : 35FC5E29
CRC32 hash : 35FC5E29
CRC32 hash (skip zero) : 90DF77B0
Statistics
Read error : 0
Jitter error (maybe fixed) : 0
Retry sector count : 0
Damaged sector count : 0

Track 01
Pre-gap length : 00:02:32

Track gain : -2.87 dB
Peak : 0.999969
CRC32 hash (test run) : 720CCBC3
CRC32 hash : 720CCBC3
CRC32 hash (skip zero) : 7FC0010D
AccurateRip v1 signature : 1AD5225C
AccurateRip v2 signature : B627018E
->Accurately ripped (v1+v2, confidence 4+8/14)
Statistics
Read error : 0
Jitter error (maybe fixed) : 0
Retry sector count : 0
Damaged sector count : 0

Track 02

Track gain : -1.70 dB
Peak : 1.000000
CRC32 hash (test run) : 8DF8C4B5
CRC32 hash : 8DF8C4B5
CRC32 hash (skip zero) : 79DEB420
AccurateRip v1 signature : 99B8DF81
AccurateRip v2 signature : 2FA6CABC
->Accurately ripped (v1+v2, confidence 4+8/14)
Statistics
Read error : 0
Jitter error (maybe fixed) : 0
Retry sector count : 0
Damaged sector count : 0

Track 03
Pre-gap length : 00:01:70

Track gain : -2.24 dB
Peak : 0.926422
CRC32 hash (test run) : C4DF6FC0
CRC32 hash : C4DF6FC0
CRC32 hash (skip zero) : 439345D0
AccurateRip v1 signature : DF95FE61
AccurateRip v2 signature : F6AE8D81
->Accurately ripped (v1+v2, confidence 4+8/14)
Statistics
Read error : 0
Jitter error (maybe fixed) : 0
Retry sector count : 0
Damaged sector count : 0

Track 04
Pre-gap length : 00:02:40

Track gain : -1.34 dB
Peak : 0.912048
CRC32 hash (test run) : 49071F20
CRC32 hash : 49071F20
CRC32 hash (skip zero) : 759ED2DF
AccurateRip v1 signature : 1A176EF6
AccurateRip v2 signature : 1ECA3785
->Accurately ripped (v1+v2, confidence 4+8/14)
Statistics
Read error : 0
Jitter error (maybe fixed) : 0
Retry sector count : 0
Damaged sector count : 0

Track 05
Pre-gap length : 00:02:18

Track gain : -2.09 dB
Peak : 0.947418
CRC32 hash (test run) : 670C85EF
CRC32 hash : 670C85EF
CRC32 hash (skip zero) : 68CA0FF8
AccurateRip v1 signature : D3E6C00E
AccurateRip v2 signature : D397CAB5
->Accurately ripped (v1+v2, confidence 4+8/14)
Statistics
Read error : 0
Jitter error (maybe fixed) : 0
Retry sector count : 0
Damaged sector count : 0

Track 06
Pre-gap length : 00:01:18

Track gain : -1.50 dB
Peak : 0.824585
CRC32 hash (test run) : 0D3E7547
CRC32 hash : 0D3E7547
CRC32 hash (skip zero) : 28E5E58D
AccurateRip v1 signature : CFC873B6
AccurateRip v2 signature : 40A60555
->Accurately ripped (v1+v2, confidence 4+8/14)
Statistics
Read error : 0
Jitter error (maybe fixed) : 0
Retry sector count : 0
Damaged sector count : 0

Track 07
Pre-gap length : 00:00:65

Track gain : -1.41 dB
Peak : 0.790222
CRC32 hash (test run) : 7D7EF299
CRC32 hash : 7D7EF299
CRC32 hash (skip zero) : DA9D9BDA
AccurateRip v1 signature : 902F3C3B
AccurateRip v2 signature : E91D5682
->Accurately ripped (v1+v2, confidence 4+8/14)
Statistics
Read error : 0
Jitter error (maybe fixed) : 0
Retry sector count : 0
Damaged sector count : 0

Track 08
Pre-gap length : 00:02:03

Track gain : -2.84 dB
Peak : 0.930481
CRC32 hash (test run) : 906F1C56
CRC32 hash : 906F1C56
CRC32 hash (skip zero) : 2076CB21
AccurateRip v1 signature : DCEE1898
AccurateRip v2 signature : D90C2C38
->Accurately ripped (v1+v2, confidence 4+8/14)
Statistics
Read error : 0
Jitter error (maybe fixed) : 0
Retry sector count : 0
Damaged sector count : 0

Track 09
Pre-gap length : 00:02:23

Track gain : -2.14 dB
Peak : 0.915558
CRC32 hash (test run) : CDC8FA54
CRC32 hash : CDC8FA54
CRC32 hash (skip zero) : 27347DEA
AccurateRip v1 signature : 0FCD0D7D
AccurateRip v2 signature : 064CA558
->Accurately ripped (v1+v2, confidence 4+8/14)
Statistics
Read error : 0
Jitter error (maybe fixed) : 0
Retry sector count : 0
Damaged sector count : 0

Track 10
Pre-gap length : 00:01:65

Track gain : -1.33 dB
Peak : 0.914154
CRC32 hash (test run) : CA17100E
CRC32 hash : CA17100E
CRC32 hash (skip zero) : 5C9EEA08
AccurateRip v1 signature : 9A4EDE47
AccurateRip v2 signature : 7B616177
->Accurately ripped (v1+v2, confidence 5+8/15)
Statistics
Read error : 0
Jitter error (maybe fixed) : 0
Retry sector count : 0
Damaged sector count : 0

No errors occurred

End of status report

—–BEGIN XLD SIGNATURE—–
hF3dqsfFi7mhDG.sbuOW8VW2F5CNE7H_.nVvuI6pwtpQGhJz4a4VJhcs74u2ofit7PRuA.LLYbwiT5KpYmwb6Swp9PZRJev5Piv_j4O
—–END XLD SIGNATURE—–

TITLE “Sound Elixir (CLACD 218)”
PERFORMER “Nazareth”
REM GENRE “Hard-Rock”
REM DATE “1983”
REM DISCID 7A09630A
REM REPLAYGAIN_ALBUM_GAIN -2.08 dB
REM REPLAYGAIN_ALBUM_PEAK 1.000000
FILE “Nazareth – Sound Elixir (CLACD 218).flac” WAVE
TRACK 01 AUDIO
TITLE “All Nite Radio”
PERFORMER “Nazareth”
REM REPLAYGAIN_TRACK_GAIN -2.87 dB
REM REPLAYGAIN_TRACK_PEAK 0.999969
INDEX 00 00:00:00
INDEX 01 00:00:32
TRACK 02 AUDIO
TITLE “Milk And Honey”
PERFORMER “Nazareth”
REM REPLAYGAIN_TRACK_GAIN -1.70 dB
REM REPLAYGAIN_TRACK_PEAK 1.000000
INDEX 01 04:09:42
TRACK 03 AUDIO
TITLE “Whippin’ Boy”
PERFORMER “Nazareth”
REM REPLAYGAIN_TRACK_GAIN -2.24 dB
REM REPLAYGAIN_TRACK_PEAK 0.926422
INDEX 00 08:16:10
INDEX 01 08:18:05
TRACK 04 AUDIO
TITLE “Rain On The Window”
PERFORMER “Nazareth”
REM REPLAYGAIN_TRACK_GAIN -1.34 dB
REM REPLAYGAIN_TRACK_PEAK 0.912048
INDEX 00 13:01:25
INDEX 01 13:03:65
TRACK 05 AUDIO
TITLE “Back Room Boys”
PERFORMER “Nazareth”
REM REPLAYGAIN_TRACK_GAIN -2.09 dB
REM REPLAYGAIN_TRACK_PEAK 0.947418
INDEX 00 17:26:02
INDEX 01 17:28:20
TRACK 06 AUDIO
TITLE “Why Don’t You Read The Book”
PERFORMER “Nazareth”
REM REPLAYGAIN_TRACK_GAIN -1.50 dB
REM REPLAYGAIN_TRACK_PEAK 0.824585
INDEX 00 20:49:07
INDEX 01 20:50:25
TRACK 07 AUDIO
TITLE “I Ran”
PERFORMER “Nazareth”
REM REPLAYGAIN_TRACK_GAIN -1.41 dB
REM REPLAYGAIN_TRACK_PEAK 0.790222
INDEX 00 24:34:70
INDEX 01 24:35:60
TRACK 08 AUDIO
TITLE “Rags To Riches”
PERFORMER “Nazareth”
REM REPLAYGAIN_TRACK_GAIN -2.84 dB
REM REPLAYGAIN_TRACK_PEAK 0.930481
INDEX 00 29:05:32
INDEX 01 29:07:35
TRACK 09 AUDIO
TITLE “Local Still”
PERFORMER “Nazareth”
REM REPLAYGAIN_TRACK_GAIN -2.14 dB
REM REPLAYGAIN_TRACK_PEAK 0.915558
INDEX 00 32:32:47
INDEX 01 32:34:70
TRACK 10 AUDIO
TITLE “Where Are You Now?”
PERFORMER “Nazareth”
REM REPLAYGAIN_TRACK_GAIN -1.33 dB
REM REPLAYGAIN_TRACK_PEAK 0.914154
INDEX 00 36:06:45
INDEX 01 36:08:35


Leave a Reply

Your email address will not be published. Required fields are marked *

This site uses Akismet to reduce spam. Learn how your comment data is processed.