Nazareth – ‘Snaz (Reissue)




Artist: Nazareth
Year: 1981/1987
Genre: Rock
Notes: Discogs
Add. Notes: Reissue
Cover incl.: Yes
Encoder: FLAC
Bitrate: ~900 kBit/s (44.1 kHz/16 Bit/s)
Log & Cue incl.: Yes
Size: 569 MB
Password: “slam” (without ” “)


All Downloads/Hosters are compatible

Download 1
KatFile.com
Turbobit.net
Rapidgator.net
FileFactory.com
Download 2
KatFile.com
Turbobit.net
Rapidgator.net
FileFactory.com

Tracklist:

Telegram - (6:55)
1.1 - Part 1 - On Your Way - 
1.2 - Part 2 - So You Want To Be A 
Rock 'N' Roll Star - 
1.3 - Part 3 - Sound Check - 
2 - Razamanaz - 4:23
3 - I Want To Do Everything For 
You - 5:22
4 - This Flight Tonight - 3:36
5 - Beggars Day - 3:57
6 - Heart's Grown Cold - 6:41
7 - Java Blues - 4:46
8 - Cocaine - 4:25
9 - Holiday - 4:05
10 - Dressed To Kill - 3:46
11 - Hair Of The Dog - 6:07
12 - Expect No Mercy - 4:37
13 - Shape Of Things - 6:18
14 - Love Hurts - 3:59
15 - Tush - 4:47

EAC-Log, CUE-Sheed & NFO:

Click to open spoiler
Exact Audio Copy V1.0 beta 3 from 29. August 2011

EAC extraction logfile from 25. February 2014, 23:56

Nazareth / Snaz

Used drive : SONY BD RW BDX-S600U Adapter: 2 ID: 1

Read mode : Secure
Utilize accurate stream : Yes
Defeat audio cache : Yes
Make use of C2 pointers : No

Read offset correction : 48
Overread into Lead-In and Lead-Out : No
Fill up missing offset samples with silence : Yes
Delete leading and trailing silent blocks : No
Null samples used in CRC calculations : Yes
Used interface : Native Win32 interface for Win NT & 2000

Used output format : User Defined Encoder
Selected bitrate : 128 kBit/s
Quality : High
Add ID3 tag : No
Command line compressor : C:\Program Files (x86)\Exact Audio Copy\Flac\flac.exe
Additional command line options : -V -8 -T “Date=%year%” -T “Genre=%genre%” %source%

TOC of the extracted CD

Track | Start | Length | Start sector | End sector
———————————————————
1 | 0:00.33 | 6:55.35 | 33 | 31192
2 | 6:55.68 | 4:23.47 | 31193 | 50964
3 | 11:19.40 | 5:22.48 | 50965 | 75162
4 | 16:42.13 | 3:36.72 | 75163 | 91434
5 | 20:19.10 | 3:57.45 | 91435 | 109254
6 | 24:16.55 | 6:41.63 | 109255 | 139392
7 | 30:58.43 | 4:46.25 | 139393 | 160867
8 | 35:44.68 | 4:25.40 | 160868 | 180782
9 | 40:10.33 | 4:05.25 | 180783 | 199182
10 | 44:15.58 | 3:46.25 | 199183 | 216157
11 | 48:02.08 | 6:07.32 | 216158 | 243714
12 | 54:09.40 | 4:37.68 | 243715 | 264557
13 | 58:47.33 | 6:18.30 | 264558 | 292937
14 | 65:05.63 | 3:59.72 | 292938 | 310934
15 | 69:05.60 | 4:47.18 | 310935 | 332477

Range status and errors

Selected range

Filename D:\Nazareth discography\1981. Nazareth – ‘Snaz\1981. Nazareth – ‘Snaz (Castle Comm.,CLACD 130,France)\Nazareth – Snaz.wav

Peak level 95.6 %
Extraction speed 6.9 X
Range quality 100.0 %
Test CRC B5BA687E
Copy CRC B5BA687E
Copy OK

No errors occurred

AccurateRip summary

Track 1 accurately ripped (confidence 5) [89D5B0E5] (AR v2)
Track 2 accurately ripped (confidence 5) [AD3D7D59] (AR v2)
Track 3 accurately ripped (confidence 4) [D8964F26] (AR v2)
Track 4 accurately ripped (confidence 5) [BEBD308F] (AR v2)
Track 5 accurately ripped (confidence 5) [D2F8E9F1] (AR v2)
Track 6 accurately ripped (confidence 5) [CCED1BF9] (AR v2)
Track 7 accurately ripped (confidence 5) [A65650B9] (AR v2)
Track 8 accurately ripped (confidence 5) [5BAC8DAC] (AR v2)
Track 9 accurately ripped (confidence 5) [600911DB] (AR v2)
Track 10 accurately ripped (confidence 5) [E0C84052] (AR v2)
Track 11 accurately ripped (confidence 5) [645AA7F2] (AR v2)
Track 12 accurately ripped (confidence 5) [B5251536] (AR v2)
Track 13 accurately ripped (confidence 5) [5DCF8D02] (AR v2)
Track 14 accurately ripped (confidence 5) [EAAAA606] (AR v2)
Track 15 accurately ripped (confidence 3) [61ADE92F] (AR v2)

All tracks accurately ripped

End of status report

—- CUETools DB Plugin V2.1.4

[CTDB TOCID: DCr1V2.dOSu6ikzxKE5tonYw6nk-] found
Submit result: DCr1V2.dOSu6ikzxKE5tonYw6nk- has been confirmed
Track | CTDB Status
1 | (1/1) Accurately ripped
2 | (1/1) Accurately ripped
3 | (1/1) Accurately ripped
4 | (1/1) Accurately ripped
5 | (1/1) Accurately ripped
6 | (1/1) Accurately ripped
7 | (1/1) Accurately ripped
8 | (1/1) Accurately ripped
9 | (1/1) Accurately ripped
10 | (1/1) Accurately ripped
11 | (1/1) Accurately ripped
12 | (1/1) Accurately ripped
13 | (1/1) Accurately ripped
14 | (1/1) Accurately ripped
15 | (1/1) Accurately ripped

==== Log checksum ACD21F2C69BF5D35CAE0D02ECA382891357F851BCDD210739F80C893D500DB8E ====

REM GENRE “Hard Rock”
REM DATE 1981
REM DISCID CA11510F
REM COMMENT “ExactAudioCopy v1.0b3”
PERFORMER “Nazareth”
TITLE “Snaz”
FILE “Nazareth – Snaz.flac” WAVE
TRACK 01 AUDIO
TITLE “Telegram”
PERFORMER “Nazareth”
INDEX 00 00:00:00
INDEX 01 00:00:33
TRACK 02 AUDIO
TITLE “Razamanaz”
PERFORMER “Nazareth”
INDEX 00 06:55:65
INDEX 01 06:55:68
TRACK 03 AUDIO
TITLE “I Want to Do Everything For You”
PERFORMER “Nazareth”
INDEX 00 11:19:38
INDEX 01 11:19:40
TRACK 04 AUDIO
TITLE “This Flight Tonight”
PERFORMER “Nazareth”
INDEX 00 16:42:10
INDEX 01 16:42:13
TRACK 05 AUDIO
TITLE “Beggers Day”
PERFORMER “Nazareth”
INDEX 00 20:19:08
INDEX 01 20:19:10
TRACK 06 AUDIO
TITLE “Heart’s Grown Cold”
PERFORMER “Nazareth”
INDEX 00 24:16:53
INDEX 01 24:16:55
TRACK 07 AUDIO
TITLE “Java Blues”
PERFORMER “Nazareth”
INDEX 00 30:58:40
INDEX 01 30:58:43
TRACK 08 AUDIO
TITLE “Cocaine”
PERFORMER “Nazareth”
INDEX 00 35:44:65
INDEX 01 35:44:68
TRACK 09 AUDIO
TITLE “Holiday”
PERFORMER “Nazareth”
INDEX 00 40:10:30
INDEX 01 40:10:33
TRACK 10 AUDIO
TITLE “Dressed to Kill”
PERFORMER “Nazareth”
INDEX 00 44:15:55
INDEX 01 44:15:58
TRACK 11 AUDIO
TITLE “Hair of the Dog”
PERFORMER “Nazareth”
INDEX 00 48:02:05
INDEX 01 48:02:08
TRACK 12 AUDIO
TITLE “Expect No Mercy”
PERFORMER “Nazareth”
INDEX 00 54:09:38
INDEX 01 54:09:40
TRACK 13 AUDIO
TITLE “Shapes of Things”
PERFORMER “Nazareth”
INDEX 00 58:47:30
INDEX 01 58:47:33
TRACK 14 AUDIO
TITLE “Love Hurts”
PERFORMER “Nazareth”
INDEX 00 65:05:60
INDEX 01 65:05:63
TRACK 15 AUDIO
TITLE “Tush”
PERFORMER “Nazareth”
INDEX 00 69:05:58
INDEX 01 69:05:60


Leave a Reply

Your email address will not be published. Required fields are marked *

Enter the text from the image below
 

This site uses Akismet to reduce spam. Learn how your comment data is processed.