Nazareth – Snakes ‘N’ Ladders




No Cover available

Artist: Nazareth
Year: 1989
Genre: Rock
Notes: Discogs
Add. Notes:
Watch Songs on: YouTube
Cover incl.: Yes
Encoder: FLAC
Bitrate: ~800 kBit/s (44.1 kHz/16 Bit/s)
Log & Cue incl.: Yes/Yes
Size: 448,3 MB
Password: “slam” (without ” “)


All Downloads/Hosters are compatible

Download 1
KatFile.com
Turbobit.net
FileFactory.com
Rapidgator.net
NitroFlare.com
Download 2
KatFile.com
Turbobit.net
FileFactory.com
Rapidgator.net
NitroFlare.com

Tracklist:

1 We Are Animals 4:03
2 Lady Luck 4:12
3 Hang On A Dream 4:35
4 Piece Of My Heart 4:27
5 Trouble 4:59
6 The Key 3:18
7 Back To School 4:55
8 Girls 3:44
9 Donna - Get Off That Crack 4:26
10 See You, See Me 5:05
11 Helpless 4:59

EAC-Log, CUE-Sheed & NFO:

Click to open spoiler
Exact Audio Copy V1.0 beta 3 from 29. August 2011

EAC extraction logfile from 21. February 2014, 13:09

Nazareth / Snakes ‘N’ Ladders

Used drive : SONY BD RW BDX-S600U Adapter: 2 ID:
1

Read mode : Secure
Utilize accurate stream : Yes
Defeat audio cache : Yes
Make use of C2 pointers : No

Read offset correction : 48
Overread into Lead-In and Lead-Out : No
Fill up missing offset samples with silence : Yes
Delete leading and trailing silent blocks : No
Null samples used in CRC calculations : Yes
Used interface : Native Win32 interface
for Win NT & 2000

Used output format : User Defined Encoder
Selected bitrate : 128 kBit/s
Quality : High
Add ID3 tag : No
Command line compressor : C:\Program Files
(x86)\Exact Audio Copy\Flac\flac.exe
Additional command line options : -V -8 -T “Date=%
year%” -T “Genre=%genre%” %source%

TOC of the extracted CD

Track | Start | Length | Start sector | End sector
———————————————————
1 | 0:00.37 | 4:06.40 | 37 | 18526
2 | 4:07.02 | 4:14.70 | 18527 | 37646
3 | 8:21.72 | 4:37.13 | 37647 | 58434
4 | 12:59.10 | 4:30.62 | 58435 | 78746
5 | 17:29.72 | 4:59.73 | 78747 | 101244
6 | 22:29.70 | 3:20.02 | 101245 | 116246
7 | 25:49.72 | 4:57.00 | 116247 | 138521
8 | 30:46.72 | 3:44.73 | 138522 | 155394
9 | 34:31.70 | 4:25.15 | 155395 | 175284
10 | 38:57.10 | 5:07.05 | 175285 | 198314
11 | 44:04.15 | 4:59.40 | 198315 | 220779

Range status and errors

Selected range

Filename D:\Nazareth discography\1989. Nazareth –
Snakes ’n’ Ladders\1989. Nazareth – Snakes ’n’ Ladders
(Vertigo 838 426-2,Germany)\Nazareth – Snakes ‘N’
Ladders.wav

Peak level 100.0 %
Extraction speed 6.2 X
Range quality 100.0 %
Test CRC ADE16C10
Copy CRC ADE16C10
Copy OK

No errors occurred

AccurateRip summary

Track 1 cannot be verified as accurate (confidence 1)
[0EE51756], AccurateRip returned [E1C25170] (AR v2)
Track 2 cannot be verified as accurate (confidence 1)
[77432657], AccurateRip returned [DF985A3A] (AR v2)
Track 3 cannot be verified as accurate (confidence 1)
[0BA54DD8], AccurateRip returned [156423A2] (AR v2)
Track 4 cannot be verified as accurate (confidence 1)
[0878D98D], AccurateRip returned [205A1842] (AR v2)
Track 5 cannot be verified as accurate (confidence 1)
[56377B46], AccurateRip returned [8F56C8B2] (AR v2)
Track 6 cannot be verified as accurate (confidence 1)
[942E40FE], AccurateRip returned [1A4F5E75] (AR v2)
Track 7 cannot be verified as accurate (confidence 1)
[331B4520], AccurateRip returned [C2774364] (AR v2)
Track 8 cannot be verified as accurate (confidence 1)
[B1E7D740], AccurateRip returned [EE416A57] (AR v2)
Track 9 cannot be verified as accurate (confidence 1)
[BA5367F6], AccurateRip returned [6034F430] (AR v2)
Track 10 cannot be verified as accurate (confidence 1)
[7E5C187B], AccurateRip returned [E669E9D6] (AR v2)
Track 11 cannot be verified as accurate (confidence 1)
[FA203B1C], AccurateRip returned [37ADF334] (AR v2)

No tracks could be verified as accurate
You may have a different pressing from the one(s) in the
database

End of status report

—- CUETools DB Plugin V2.1.4

[CTDB TOCID: 8JGYlHT8HI0Kh0IS5E41Jxx7DnE-] found
Submit result: 8JGYlHT8HI0Kh0IS5E41Jxx7DnE- has been
confirmed
Track | CTDB Status
1 | (1/1) Accurately ripped
2 | (1/1) Accurately ripped
3 | (1/1) Accurately ripped
4 | (1/1) Accurately ripped
5 | (1/1) Accurately ripped
6 | (1/1) Accurately ripped
7 | (1/1) Accurately ripped
8 | (1/1) Accurately ripped
9 | (1/1) Accurately ripped
10 | (1/1) Accurately ripped
11 | (1/1) Accurately ripped

==== Log checksum
FC9ED9D9C1DA185FD2CE8CFF0C53BAC8D99AE7F6AD8
0B562A5ECE871D93E7882 ====

REM DISCID 8A0B7F0B
REM COMMENT “ExactAudioCopy v1.0b3”
PERFORMER “Nazareth”
TITLE “Snakes ‘N’ Ladders”
FILE “Nazareth – Snakes ‘N’ Ladders.flac” WAVE
TRACK 01 AUDIO
TITLE “Nazareth / We Are Animals”
PERFORMER “Nazareth”
INDEX 00 00:00:00
INDEX 01 00:00:37
TRACK 02 AUDIO
TITLE “Nazareth / Lady Luck”
PERFORMER “Nazareth”
INDEX 00 04:07:00
INDEX 01 04:07:02
TRACK 03 AUDIO
TITLE “Nazareth / Hang On To A Dream”
PERFORMER “Nazareth”
INDEX 01 08:21:72
TRACK 04 AUDIO
TITLE “Nazareth / Piece Of My Heart”
PERFORMER “Nazareth”
INDEX 01 12:59:10
TRACK 05 AUDIO
TITLE “Nazareth / Trouble”
PERFORMER “Nazareth”
INDEX 01 17:29:72
TRACK 06 AUDIO
TITLE “Nazareth / The Key”
PERFORMER “Nazareth”
INDEX 01 22:29:70
TRACK 07 AUDIO
TITLE “Nazareth / Back To School”
PERFORMER “Nazareth”
INDEX 01 25:49:72
TRACK 08 AUDIO
TITLE “Nazareth / Girls”
PERFORMER “Nazareth”
INDEX 01 30:46:72
TRACK 09 AUDIO
TITLE “Nazareth / Donna – Get Off That Crack”
PERFORMER “Nazareth”
INDEX 01 34:31:70
TRACK 10 AUDIO
TITLE “Nazareth / See You, See Me”
PERFORMER “Nazareth”
INDEX 01 38:57:10
TRACK 11 AUDIO
TITLE “Nazareth / Helpless”
PERFORMER “Nazareth”
INDEX 01 44:04:15


Leave a Reply

Your email address will not be published. Required fields are marked *

Enter the text from the image below
 

This site uses Akismet to reduce spam. Learn how your comment data is processed.