Nazareth – Snakes ‘N’ Ladders (Remastered)




Artist: Nazareth
Year: 1989/2002
Genre: Rock
Notes: Discogs
Add. Notes: Remastered
Cover incl.: Yes
Encoder: FLAC
Bitrate: ~900 kBit/s (44.1 kHz/16 Bit/s)
Log & Cue incl.: Yes
Size: 671,99 MB
Password: “slam” (without ” “)


All Downloads/Hosters are compatible

Download 1
Turbobit.net
KatFile.com
Rapidgator.net
NitroFlare.com
Download 2
Turbobit.net
KatFile.com
Rapidgator.net
NitroFlare.com

Tracklist:

1. Animals 	
2. Lady Luck 	
3. Hang On To A Dream 	
4. Piece Of My Heart 	
5. Trouble 	
6. The Key 	
7. Back To School 	
8. Girls 	
9. Donna, Get Off That Crack 	
10. See You See Me 	
11. Helpless 	
12. Winner On The Night 	
13. Woke Up This Morning (Live) 	
14. Bad Bad Boy (Live) 	
15. Hang On To A Dream (Single Edit) 	
16. Lady Luck (Extended Version) 	
17. We Are Animals (Alternate Edit) 	
18. Trouble (Single Version)

EAC-Log, CUE-Sheed & NFO:

Click to open spoiler
Exact Audio Copy V1.1 from 23. June 2015

Отчёт EAC об извлечении, выполненном 18. августа 2016, 17:22

Nazareth / Snakes ‘n’ Ladders

Дисковод: TSSTcorpBDDVDW SE-506BB Adapter: 1 ID: 1

Режим чтения : Достоверность
Использование точного потока : Да
Отключение кэша аудио : Да
Использование указателей C2 : Нет

Коррекция смещения при чтении : 6
Способность читать области Lead-in и Lead-out : Нет
Заполнение пропущенных сэмплов тишиной : Да
Удаление блоков с тишиной в начале и конце : Нет
При вычислениях CRC использовались нулевые сэмплы : Да
Интерфейс : Встроенный Win32-интерфейс для Win NT/2000

Выходной формат : Внутренние WAV-операции
Формат сэмплов : 44.100 Гц; 16 бит; стерео

TOC извлечённого CD

Трек | Старт | Длительность | Начальный сектор | Конечный сектор
———————————————————————
1 | 0:00.00 | 4:05.04 | 0 | 18378
2 | 4:05.04 | 4:09.47 | 18379 | 37100
3 | 8:14.51 | 4:36.09 | 37101 | 57809
4 | 12:50.60 | 4:28.48 | 57810 | 77957
5 | 17:19.33 | 4:57.73 | 77958 | 100305
6 | 22:17.31 | 3:18.29 | 100306 | 115184
7 | 25:35.60 | 4:53.52 | 115185 | 137211
8 | 30:29.37 | 3:43.29 | 137212 | 153965
9 | 34:12.66 | 4:23.57 | 153966 | 173747
10 | 38:36.48 | 5:00.22 | 173748 | 196269
11 | 43:36.70 | 4:58.47 | 196270 | 218666
12 | 48:35.42 | 4:12.04 | 218667 | 237570
13 | 52:47.46 | 5:34.67 | 237571 | 262687
14 | 58:22.38 | 4:36.39 | 262688 | 283426
15 | 62:59.02 | 3:38.60 | 283427 | 299836
16 | 66:37.62 | 6:00.00 | 299837 | 326836
17 | 72:37.62 | 3:28.00 | 326837 | 342436
18 | 76:05.62 | 3:33.34 | 342437 | 358445

Характеристики диапазона извлечения и сообщения об ошибках

Выбранный диапазон

Имя файла D:\Temp\Nazareth – 1989 – Snakes ‘n’ Ladders [2002 Eagle Records, EAMCD143].wav

Пиковый уровень 100.0 %
Скорость извлечения 5.3 X
Качество диапазона 100.0 %
CRC теста 70C13788
CRC копии 70C13788
Копирование… OK

Ошибок не произошло

AccurateRip: сводка

Трек 1 : извлечено точно (доверие 4) [0933F865] (AR v2)
Трек 2 : извлечено точно (доверие 4) [6494C924] (AR v2)
Трек 3 : извлечено точно (доверие 4) [8C384DE6] (AR v2)
Трек 4 : извлечено точно (доверие 4) [00B4749C] (AR v2)
Трек 5 : извлечено точно (доверие 4) [8A3DC284] (AR v2)
Трек 6 : извлечено точно (доверие 4) [FB2C23C0] (AR v2)
Трек 7 : извлечено точно (доверие 4) [A57D5261] (AR v2)
Трек 8 : извлечено точно (доверие 4) [D25DBEC5] (AR v2)
Трек 9 : извлечено точно (доверие 4) [4CE2CDFC] (AR v2)
Трек 10 : извлечено точно (доверие 4) [B1486270] (AR v2)
Трек 11 : извлечено точно (доверие 4) [7D9117B1] (AR v2)
Трек 12 : извлечено точно (доверие 4) [B9E5217B] (AR v2)
Трек 13 : извлечено точно (доверие 4) [436FF3FC] (AR v2)
Трек 14 : извлечено точно (доверие 4) [139A6392] (AR v2)
Трек 15 : извлечено точно (доверие 4) [D58642D1] (AR v2)
Трек 16 : извлечено точно (доверие 4) [F52C515B] (AR v2)
Трек 17 : извлечено точно (доверие 4) [26B6D029] (AR v2)
Трек 18 : извлечено точно (доверие 4) [29A45981] (AR v2)

Все треки извлечены точно

Конец отчёта

==== Контрольная сумма отчёта 0C0B86F0E9AE267CF7713F24870CE35275027C3B31D7582A5A49FD48B92B3501 ====

REM GENRE “Hard Rock”
REM DATE 1989
REM DISCID 1E12AB12
REM COMMENT “ExactAudioCopy v1.1”
PERFORMER “Nazareth”
TITLE “Snakes ‘n’ Ladders”
FILE “Nazareth – 1989 – Snakes ‘n’ Ladders [2002 Eagle Records, EAMCD143].flac” WAVE
TRACK 01 AUDIO
TITLE “Animals”
PERFORMER “Nazareth”
INDEX 01 00:00:00
TRACK 02 AUDIO
TITLE “Lady Luck”
PERFORMER “Nazareth”
INDEX 00 04:03:22
INDEX 01 04:05:04
TRACK 03 AUDIO
TITLE “Hang On To A Dream”
PERFORMER “Nazareth”
INDEX 00 08:12:69
INDEX 01 08:14:51
TRACK 04 AUDIO
TITLE “Piece Of My Heart”
PERFORMER “Nazareth”
INDEX 00 12:49:03
INDEX 01 12:50:60
TRACK 05 AUDIO
TITLE “Trouble”
PERFORMER “Nazareth”
INDEX 00 17:17:51
INDEX 01 17:19:33
TRACK 06 AUDIO
TITLE “The Key”
PERFORMER “Nazareth”
INDEX 00 22:15:49
INDEX 01 22:17:31
TRACK 07 AUDIO
TITLE “Back To School”
PERFORMER “Nazareth”
INDEX 00 25:34:03
INDEX 01 25:35:60
TRACK 08 AUDIO
TITLE “Girls”
PERFORMER “Nazareth”
INDEX 00 30:27:55
INDEX 01 30:29:37
TRACK 09 AUDIO
TITLE “Donna, Get Off The Crack”
PERFORMER “Nazareth”
INDEX 00 34:11:09
INDEX 01 34:12:66
TRACK 10 AUDIO
TITLE “See You See Me”
PERFORMER “Nazareth”
INDEX 00 38:34:66
INDEX 01 38:36:48
TRACK 11 AUDIO
TITLE “Helpless”
PERFORMER “Nazareth”
INDEX 00 43:35:13
INDEX 01 43:36:70
TRACK 12 AUDIO
TITLE “Winner On The Night [*][German single]”
PERFORMER “Nazareth”
INDEX 00 48:31:50
INDEX 01 48:35:42
TRACK 13 AUDIO
TITLE “Woke Up This Morning [*][live]”
PERFORMER “Nazareth”
INDEX 00 52:45:64
INDEX 01 52:47:46
TRACK 14 AUDIO
TITLE “Bad Bad Boy [*][live]”
PERFORMER “Nazareth”
INDEX 01 58:22:38
TRACK 15 AUDIO
TITLE “Hang On To A Dream [*][single sdit]”
PERFORMER “Nazareth”
INDEX 00 62:57:20
INDEX 01 62:59:02
TRACK 16 AUDIO
TITLE “Lady Luck [*][extended version]”
PERFORMER “Nazareth”
INDEX 00 66:36:05
INDEX 01 66:37:62
TRACK 17 AUDIO
TITLE “We Are Animals [*][alternate edit]”
PERFORMER “Nazareth”
INDEX 00 72:36:05
INDEX 01 72:37:62
TRACK 18 AUDIO
TITLE “Trouble [*][single version]”
PERFORMER “Nazareth”
INDEX 00 76:04:05
INDEX 01 76:05:62


Leave a Reply

Your email address will not be published. Required fields are marked *

This site uses Akismet to reduce spam. Learn how your comment data is processed.