Nazareth – Snakes ‘N’ Ladders / No Jive (Remastered)




No Cover available

Artist: Nazareth
Year: 2011
Genre: Rock
Notes: Discogs
Add. Notes: Remastered
Watch Songs on: YouTube
Cover incl.: Yes
Encoder: FLAC
Bitrate: ~1000 kBit/s (44.1 kHz/16 Bit/s)
Log & Cue incl.: Yes/Yes
Size: 954,7 MB
Password: “slam” (without ” “)


All Downloads/Hosters are compatible

Download 1
KatFile.com
Turbobit.net
Rapidgator.net
FileFactory.com
Download 2
KatFile.com
Turbobit.net
Rapidgator.net
FileFactory.com

Tracklist:

Snakes 'N' Ladders
1-1 Animals 4:02
1-2 Lady Luck 4:09
1-3 Hang On To A Dream 4:34
1-4 Piece Of My Heart 4:25
1-5 Trouble 4:56
1-6 The Key 3:16
1-7 Back To School 4:52
1-8 Girls 3:40
1-9 Donna - Get Off That Crack 4:21
1-10 See You See Me 4:59
1-11 Helpless 4:50
Bonus Tracks
1-12 Winner On The Night (German Single) 4:11
1-13 Woke Up This Morning (Live) 5:35
1-14 Bad Bad Boy (Live) 4:35

No Jive
2-1 Hire And Fire 5:11
2-2 Do You Wanna Play House 4:59
2-3 Right Between The Eyes 3:06
2-4 Every Time It Rains 4:11
2-5 Keeping Our Love Alive 3:12
2-6 Thinkin' Man's Nightmare 4:02
2-7 Cover Your Heart 4:28
2-8 Lap Of Luxury 3:55
The Rowan Tree / Tell Me That You Love Me (4:35)
2-9 A. The Rowan Tree 
2-9 B. Tell Me That You Love Me 
2-10 Cry Wolf 4:13
Bonus Tracks
2-11 This Flight Tonight 1991 3:36
2-12 Tell Me That You Love Me (Single Version) 3:21

EAC-Log, CUE-Sheed & NFO:

Click to open spoiler
Exact Audio Copy V1.0 beta 3 from 29. August 2011

EAC extraction logfile from 29. December 2012, 10:03

Nazareth / Snakes ‘N’ Ladders

Used drive : ATAPI iHAS124 B Adapter: 2 ID: 0

Read mode : Secure
Utilize accurate stream : Yes
Defeat audio cache : Yes
Make use of C2 pointers : No

Read offset correction : 6
Overread into Lead-In and Lead-Out : No
Fill up missing offset samples with silence : Yes
Delete leading and trailing silent blocks : No
Null samples used in CRC calculations : Yes
Used interface : Native Win32 interface for Win NT & 2000

Used output format : User Defined Encoder
Selected bitrate : 1024 kBit/s
Quality : High
Add ID3 tag : No
Command line compressor : C:\Program Files (x86)\Exact Audio Copy\FLAC\FLAC.EXE
Additional command line options : -8 -V -T “ARTIST=%artist%” -T “TITLE=%title%” -T “ALBUM=%albumtitle%” -T “DATE=%year%” -T “TRACKNUMBER=%tracknr%” -T “GENRE=%genre%” -T “PERFORMER=%albuminterpret%” -T “COMPOSER=%composer%” %haslyrics%–tag-from-file=LYRICS=”%lyricsfile%”%haslyrics% -T “ALBUMARTIST=%albumartist%” -T “DISCNUMBER=%cdnumber%” -T “TOTALDISCS=%totalcds%” -T “TOTALTRACKS=%numtracks%” -T “COMMENT=%comment%” %source% -o %dest%

TOC of the extracted CD

Track | Start | Length | Start sector | End sector
———————————————————
1 | 0:00.00 | 4:02.14 | 0 | 18163
2 | 4:02.14 | 4:09.23 | 18164 | 36861
3 | 8:11.37 | 4:34.58 | 36862 | 57469
4 | 12:46.20 | 4:25.56 | 57470 | 77400
5 | 17:12.01 | 4:56.49 | 77401 | 99649
6 | 22:08.50 | 3:16.74 | 99650 | 114423
7 | 25:25.49 | 4:52.25 | 114424 | 136348
8 | 30:17.74 | 3:40.39 | 136349 | 152887
9 | 33:58.38 | 4:21.06 | 152888 | 172468
10 | 38:19.44 | 4:59.60 | 172469 | 194953
11 | 43:19.29 | 4:50.03 | 194954 | 216706
12 | 48:09.32 | 4:11.00 | 216707 | 235531
13 | 52:20.32 | 5:35.46 | 235532 | 260702
14 | 57:56.03 | 4:35.35 | 260703 | 281362

Range status and errors

Selected range

Filename G:\CD\Nazareth – Snakes ‘N’ Ladders.wav

Peak level 97.7 %
Extraction speed 3.3 X
Range quality 100.0 %
Test CRC 4EAA6317
Copy CRC 4EAA6317
Copy OK

No errors occurred

AccurateRip summary

Track 1 not present in database
Track 2 not present in database
Track 3 not present in database
Track 4 not present in database
Track 5 not present in database
Track 6 not present in database
Track 7 not present in database
Track 8 not present in database
Track 9 not present in database
Track 10 not present in database
Track 11 not present in database
Track 12 not present in database
Track 13 not present in database
Track 14 not present in database

None of the tracks are present in the AccurateRip database

End of status report

==== Log checksum AC0AB9F5282C4959F0FD6CDB14B464BFDE2F287FC4975AFC5DBF80634744672B ====

Exact Audio Copy V1.0 beta 3 from 29. August 2011

EAC extraction logfile from 29. December 2012, 10:43

Nazareth / No Jive

Used drive : ATAPI iHAS124 B Adapter: 2 ID: 0

Read mode : Secure
Utilize accurate stream : Yes
Defeat audio cache : Yes
Make use of C2 pointers : No

Read offset correction : 6
Overread into Lead-In and Lead-Out : No
Fill up missing offset samples with silence : Yes
Delete leading and trailing silent blocks : No
Null samples used in CRC calculations : Yes
Used interface : Native Win32 interface for Win NT & 2000

Used output format : User Defined Encoder
Selected bitrate : 1024 kBit/s
Quality : High
Add ID3 tag : No
Command line compressor : C:\Program Files (x86)\Exact Audio Copy\FLAC\FLAC.EXE
Additional command line options : -8 -V -T “ARTIST=%artist%” -T “TITLE=%title%” -T “ALBUM=%albumtitle%” -T “DATE=%year%” -T “TRACKNUMBER=%tracknr%” -T “GENRE=%genre%” -T “PERFORMER=%albuminterpret%” -T “COMPOSER=%composer%” %haslyrics%–tag-from-file=LYRICS=”%lyricsfile%”%haslyrics% -T “ALBUMARTIST=%albumartist%” -T “DISCNUMBER=%cdnumber%” -T “TOTALDISCS=%totalcds%” -T “TOTALTRACKS=%numtracks%” -T “COMMENT=%comment%” %source% -o %dest%

TOC of the extracted CD

Track | Start | Length | Start sector | End sector
———————————————————
1 | 0:00.00 | 5:11.36 | 0 | 23360
2 | 5:11.36 | 4:59.21 | 23361 | 45806
3 | 10:10.57 | 3:06.39 | 45807 | 59795
4 | 13:17.21 | 4:11.68 | 59796 | 78688
5 | 17:29.14 | 3:12.35 | 78689 | 93123
6 | 20:41.49 | 4:02.12 | 93124 | 111285
7 | 24:43.61 | 4:28.10 | 111286 | 131395
8 | 29:11.71 | 3:55.60 | 131396 | 149080
9 | 33:07.56 | 4:35.47 | 149081 | 169752
10 | 37:43.28 | 4:13.65 | 169753 | 188792
11 | 41:57.18 | 3:36.51 | 188793 | 205043
12 | 45:33.69 | 3:21.40 | 205044 | 220158

Range status and errors

Selected range

Filename G:\CD\Nazareth – No Jive.wav

Peak level 97.7 %
Extraction speed 3.1 X
Range quality 100.0 %
Test CRC 58C4D1E0
Copy CRC 58C4D1E0
Copy OK

No errors occurred

AccurateRip summary

Track 1 not present in database
Track 2 not present in database
Track 3 not present in database
Track 4 not present in database
Track 5 not present in database
Track 6 not present in database
Track 7 not present in database
Track 8 not present in database
Track 9 not present in database
Track 10 not present in database
Track 11 not present in database
Track 12 not present in database

None of the tracks are present in the AccurateRip database

End of status report

==== Log checksum 44D994BE4C964439CB4F3F23AE289819F8F87648F7AC652C1112BC95A7EB5103 ====

REM GENRE Rock
REM DATE 1991
REM DISCID AA0B770C
REM COMMENT ExactAudioCopy v1.0b3
PERFORMER “Nazareth”
TITLE “No Jive (Remaster 2011)”
FILE “Nazareth – No Jive.flac” WAVE
TRACK 01 AUDIO
TITLE “Hire And Fire  ”
PERFORMER “Nazareth”
INDEX 01 00:00:00
TRACK 02 AUDIO
TITLE “Do You Wanna Play House  ”
PERFORMER “Nazareth”
INDEX 01 05:11:36
TRACK 03 AUDIO
TITLE “Right Between The Eyes  ”
PERFORMER “Nazareth”
INDEX 01 10:10:57
TRACK 04 AUDIO
TITLE “Every Time It Rains  ”
PERFORMER “Nazareth”
INDEX 01 13:17:21
TRACK 05 AUDIO
TITLE “Keeping Our Love Alive  ”
PERFORMER “Nazareth”
INDEX 01 17:29:14
TRACK 06 AUDIO
TITLE “Thinkin’ Man’s Nightmare  ”
PERFORMER “Nazareth”
INDEX 01 20:41:49
TRACK 07 AUDIO
TITLE “Cover Your Heart  ”
PERFORMER “Nazareth”
INDEX 01 24:43:61
TRACK 08 AUDIO
TITLE “Lap Of Luxury  ”
PERFORMER “Nazareth”
INDEX 01 29:11:71
TRACK 09 AUDIO
TITLE “The Rowan Tree/Tell Me That You Love Me  ”
PERFORMER “Nazareth”
INDEX 01 33:07:56
TRACK 10 AUDIO
TITLE “Cry Wolf  ”
PERFORMER “Nazareth”
INDEX 01 37:43:28
TRACK 11 AUDIO
TITLE “This Flight Tonight 1991”
PERFORMER “Nazareth”
INDEX 01 41:57:18
TRACK 12 AUDIO
TITLE “Tell Me That You Love Me (Single Version)”
PERFORMER “Nazareth”
INDEX 01 45:33:69

REM GENRE Rock
REM DATE 1989
REM DISCID AB0EA70E
REM COMMENT ExactAudioCopy v1.0b3
PERFORMER “Nazareth”
TITLE “Snakes ‘N’ Ladders (Remaster 2011)”
FILE “Nazareth – Snakes ‘N’ Ladders.flac” WAVE
TRACK 01 AUDIO
TITLE “Animals”
PERFORMER “Nazareth”
INDEX 01 00:00:00
TRACK 02 AUDIO
TITLE “Lady Luck”
PERFORMER “Nazareth”
INDEX 01 04:02:14
TRACK 03 AUDIO
TITLE “Hang On To A Dream”
PERFORMER “Nazareth”
INDEX 01 08:11:37
TRACK 04 AUDIO
TITLE “Piece Of My Heart”
PERFORMER “Nazareth”
INDEX 01 12:46:20
TRACK 05 AUDIO
TITLE “Trouble”
PERFORMER “Nazareth”
INDEX 01 17:12:01
TRACK 06 AUDIO
TITLE “The Key”
PERFORMER “Nazareth”
INDEX 01 22:08:50
TRACK 07 AUDIO
TITLE “Back To School”
PERFORMER “Nazareth”
INDEX 01 25:25:49
TRACK 08 AUDIO
TITLE “Girls”
PERFORMER “Nazareth”
INDEX 01 30:17:74
TRACK 09 AUDIO
TITLE “Donna – Get Off That Crack”
PERFORMER “Nazareth”
INDEX 01 33:58:38
TRACK 10 AUDIO
TITLE “See You See Me”
PERFORMER “Nazareth”
INDEX 01 38:19:44
TRACK 11 AUDIO
TITLE “Helpless”
PERFORMER “Nazareth”
INDEX 01 43:19:29
TRACK 12 AUDIO
TITLE “Winner On The Night”
PERFORMER “Nazareth”
INDEX 01 48:09:32
TRACK 13 AUDIO
TITLE “Woke Up This Morning (Live)”
PERFORMER “Nazareth”
INDEX 01 52:20:32
TRACK 14 AUDIO
TITLE “Bad Bad Boy (Live)”
PERFORMER “Nazareth”
INDEX 01 57:56:03


Leave a Reply

Your email address will not be published. Required fields are marked *

This site uses Akismet to reduce spam. Learn how your comment data is processed.