Nazareth – Rock ‘N’ Roll Telephone




[Total: 0    Average: 0/5]

Artist: Nazareth
Year: 2014
Genre: Rock
Notes: Discogs
Add. Notes:
Cover incl.: Yes
Encoder: FLAC
Bitrate: ~900 kBit/s (44.1 kHz/16 Bit/s)
Log & Cue incl.: Yes/Yes
Size: 604,5 MB
Password: “slam” (without ” “)


All Downloads/Hosters are compatible

Download 1
KatFile.com
Turbobit.net
FileFactory.com
Rapidgator.net
Download 2
KatFile.com
Turbobit.net
FileFactory.com
Rapidgator.net

Tracklist:

CD 1
1 Boom Bang Bang 
2 One Set Of Bones 
3 Back 2B4 
4 Winter Sunlight 
5 Rock 'N' Roll Telephone 
6 Punch A Hole In The Sky 
7 Long Long Time 
8 The Right Time 
9 Not Today 
10 Speakeasy 
11 God Of The Mountain 

CD 2 Bonus Tracks
1 Just A Ride 
2 Wanna Feel Good? 
3 Big Boy (Live) 
4 Kentucky Fried Blues (Live) 
5 Sunshine (Live) 
6 Expect No Mercy (Live) 
7 God Save The South (Live)

EAC-Log, CUE-Sheed & NFO:

Click to open spoiler
Exact Audio Copy V1.0 beta 3 from 29. August 2011

EAC extraction logfile from 3. July 2014, 12:16

Nazareth / Rock ‘n’ Roll Telephone

Used drive : SONY BD RW BDX-S600U Adapter: 2 ID: 1

Read mode : Secure
Utilize accurate stream : Yes
Defeat audio cache : Yes
Make use of C2 pointers : No

Read offset correction : 48
Overread into Lead-In and Lead-Out : No
Fill up missing offset samples with silence : Yes
Delete leading and trailing silent blocks : No
Null samples used in CRC calculations : Yes
Used interface : Native Win32 interface for Win NT & 2000

Used output format : User Defined Encoder
Selected bitrate : 128 kBit/s
Quality : High
Add ID3 tag : No
Command line compressor : C:\Program Files (x86)\Exact Audio Copy\Flac\flac.exe
Additional command line options : -V -8 -T “Date=%year%” -T “Genre=%genre%” %source%

TOC of the extracted CD

Track | Start | Length | Start sector | End sector
———————————————————
1 | 0:00.00 | 3:17.01 | 0 | 14775
2 | 3:17.01 | 3:27.10 | 14776 | 30310
3 | 6:44.11 | 4:52.11 | 30311 | 52221
4 | 11:36.22 | 3:29.27 | 52222 | 67923
5 | 15:05.49 | 5:45.28 | 67924 | 93826
6 | 20:51.02 | 3:49.13 | 93827 | 111014
7 | 24:40.15 | 4:18.12 | 111015 | 130376
8 | 28:58.27 | 4:50.34 | 130377 | 152160
9 | 33:48.61 | 3:26.06 | 152161 | 167616
10 | 37:14.67 | 3:17.57 | 167617 | 182448
11 | 40:32.49 | 3:42.32 | 182449 | 199130

Range status and errors

Selected range

Filename D:\Nazareth discography\Studio\2014. Nazareth – Rock ‘n’ Roll Telephone\2014. Nazareth – Rock ‘n’ Roll Telephone (Union Square Music USMFLDCD001,EU)\disc1\Nazareth – Rock ‘n’ Roll Telephone.wav

Peak level 95.1 %
Extraction speed 6.2 X
Range quality 100.0 %
Test CRC A840DF2D
Copy CRC A840DF2D
Copy OK

No errors occurred

AccurateRip summary

Track 1 accurately ripped (confidence 3) [90271146] (AR v2)
Track 2 accurately ripped (confidence 3) [885B1580] (AR v2)
Track 3 accurately ripped (confidence 3) [77066597] (AR v2)
Track 4 accurately ripped (confidence 3) [E190E5C7] (AR v2)
Track 5 accurately ripped (confidence 3) [89447375] (AR v2)
Track 6 accurately ripped (confidence 3) [6E5D321D] (AR v2)
Track 7 accurately ripped (confidence 3) [C4ADF025] (AR v2)
Track 8 accurately ripped (confidence 3) [DD81C138] (AR v2)
Track 9 accurately ripped (confidence 3) [E1409BF6] (AR v2)
Track 10 accurately ripped (confidence 3) [5F79FF0B] (AR v2)
Track 11 accurately ripped (confidence 3) [9C8091DB] (AR v2)

All tracks accurately ripped

End of status report

—- CUETools DB Plugin V2.1.4

[CTDB TOCID: N4NCnzfJGhQY_duDJlCNTw8pGlk-] found
Submit result: N4NCnzfJGhQY_duDJlCNTw8pGlk- has been confirmed
Track | CTDB Status
1 | (8/8) Accurately ripped
2 | (8/8) Accurately ripped
3 | (8/8) Accurately ripped
4 | (8/8) Accurately ripped
5 | (8/8) Accurately ripped
6 | (8/8) Accurately ripped
7 | (8/8) Accurately ripped
8 | (8/8) Accurately ripped
9 | (8/8) Accurately ripped
10 | (8/8) Accurately ripped
11 | (8/8) Accurately ripped

==== Log checksum E79203913D2BAB04A0D20F2DC51CD2980F2C173E7A0BDB18103E34E07668112E ====

Exact Audio Copy V1.0 beta 3 from 29. August 2011

EAC extraction logfile from 4. July 2014, 1:18

Nazareth / Rock ‘n’ Roll Telephone

Used drive : SONY BD RW BDX-S600U Adapter: 2 ID: 1

Read mode : Secure
Utilize accurate stream : Yes
Defeat audio cache : Yes
Make use of C2 pointers : No

Read offset correction : 48
Overread into Lead-In and Lead-Out : No
Fill up missing offset samples with silence : Yes
Delete leading and trailing silent blocks : No
Null samples used in CRC calculations : Yes
Used interface : Native Win32 interface for Win NT & 2000

Used output format : User Defined Encoder
Selected bitrate : 128 kBit/s
Quality : High
Add ID3 tag : No
Command line compressor : C:\Program Files (x86)\Exact Audio Copy\Flac\flac.exe
Additional command line options : -V -8 -T “Date=%year%” -T “Genre=%genre%” %source%

TOC of the extracted CD

Track | Start | Length | Start sector | End sector
———————————————————
1 | 0:00.00 | 2:49.57 | 0 | 12731
2 | 2:49.57 | 3:49.21 | 12732 | 29927
3 | 6:39.03 | 5:38.58 | 29928 | 55335
4 | 12:17.61 | 4:31.73 | 55336 | 75733
5 | 16:49.59 | 3:41.38 | 75734 | 92346
6 | 20:31.22 | 5:06.69 | 92347 | 115365
7 | 25:38.16 | 6:59.42 | 115366 | 146832

Range status and errors

Selected range

Filename D:\Nazareth discography\Studio\2014. Nazareth – Rock ‘n’ Roll Telephone\2014. Nazareth – Rock ‘n’ Roll Telephone (Union Square Music USMFLDCD001,EU)\disc2\Nazareth – Rock ‘n’ Roll Telephone.wav

Peak level 99.2 %
Extraction speed 5.8 X
Range quality 100.0 %
Test CRC 99869236
Copy CRC 99869236
Copy OK

No errors occurred

AccurateRip summary

Track 1 accurately ripped (confidence 3) [B1655E8F] (AR v2)
Track 2 accurately ripped (confidence 3) [8F848BD7] (AR v2)
Track 3 accurately ripped (confidence 3) [F2997C3F] (AR v2)
Track 4 accurately ripped (confidence 3) [D551254F] (AR v2)
Track 5 accurately ripped (confidence 3) [A5656A0A] (AR v2)
Track 6 accurately ripped (confidence 3) [2FB8AAF5] (AR v2)
Track 7 accurately ripped (confidence 3) [8E1F4B35] (AR v2)

All tracks accurately ripped

End of status report

—- CUETools DB Plugin V2.1.4

[CTDB TOCID: _44KQq6m0pS60MTq_6t3apIWI6g-] found
Submit result: _44KQq6m0pS60MTq_6t3apIWI6g- has been confirmed
Track | CTDB Status
1 | (6/6) Accurately ripped
2 | (6/6) Accurately ripped
3 | (6/6) Accurately ripped
4 | (6/6) Accurately ripped
5 | (6/6) Accurately ripped
6 | (6/6) Accurately ripped
7 | (6/6) Accurately ripped

==== Log checksum 99BDD4B7B4595D6547CC9E95CDF10760B0FBD034C1C6A09FA7B0A986BD2110F9 ====

REM DATE 2014
REM DISCID 8B0A5F0B
REM COMMENT “ExactAudioCopy v1.0b3”
PERFORMER “Nazareth”
TITLE “Rock ‘n’ Roll Telephone”
FILE “Nazareth – Rock ‘n’ Roll Telephone.flac” WAVE
TRACK 01 AUDIO
TITLE “Boom Bang Bang”
PERFORMER “Nazareth”
ISRC GBHVK1300477
INDEX 01 00:00:00
TRACK 02 AUDIO
TITLE “One Set of Bones”
PERFORMER “Nazareth”
INDEX 01 03:17:01
TRACK 03 AUDIO
TITLE “Back 2B4”
PERFORMER “Nazareth”
INDEX 01 06:44:11
TRACK 04 AUDIO
TITLE “Winter Sunlight”
PERFORMER “Nazareth”
INDEX 01 11:36:22
TRACK 05 AUDIO
TITLE “Rock ‘n’ Roll Telephone”
PERFORMER “Nazareth”
INDEX 01 15:05:49
TRACK 06 AUDIO
TITLE “Punch a Hole in the Sky”
PERFORMER “Nazareth”
INDEX 01 20:51:02
TRACK 07 AUDIO
TITLE “Long Long Time”
PERFORMER “Nazareth”
INDEX 01 24:40:15
TRACK 08 AUDIO
TITLE “The Right Time”
PERFORMER “Nazareth”
INDEX 01 28:58:27
TRACK 09 AUDIO
TITLE “Not Today”
PERFORMER “Nazareth”
INDEX 01 33:48:61
TRACK 10 AUDIO
TITLE “Speakeasy”
PERFORMER “Nazareth”
INDEX 01 37:14:67
TRACK 11 AUDIO
TITLE “God of the Mountain”
PERFORMER “Nazareth”
INDEX 01 40:32:49

REM GENRE “Classic Rock”
REM DATE 2014
REM DISCID 3907A507
REM COMMENT “ExactAudioCopy v1.0b3”
PERFORMER “Nazareth”
TITLE “Rock ‘n’ Roll Telephone”
FILE “Nazareth – Rock ‘n’ Roll Telephone.flac” WAVE
TRACK 01 AUDIO
TITLE “Just a Ride”
PERFORMER “Nazareth”
ISRC GBHVK1300487
INDEX 01 00:00:00
TRACK 02 AUDIO
TITLE “Wanna Feel Good?”
PERFORMER “Nazareth”
INDEX 01 02:49:57
TRACK 03 AUDIO
TITLE “Big Boy (live)”
PERFORMER “Nazareth”
INDEX 01 06:39:03
TRACK 04 AUDIO
TITLE “Kentucky Fried Blues (live)”
PERFORMER “Nazareth”
INDEX 01 12:17:61
TRACK 05 AUDIO
TITLE “Sunshine (live)”
PERFORMER “Nazareth”
INDEX 01 16:49:59
TRACK 06 AUDIO
TITLE “Expect No Mercy (live)”
PERFORMER “Nazareth”
INDEX 01 20:31:22
TRACK 07 AUDIO
TITLE “God Save the South (live)”
PERFORMER “Nazareth”
ISRC GBHVK1400074
INDEX 01 25:38:16


Spread the Download

Leave a Reply

Your email address will not be published. Required fields are marked *

Enter the text from the image below
 

This site uses Akismet to reduce spam. Learn how your comment data is processed.