Nazareth – Razamanaz




No Cover available

Artist: Nazareth
Year: 1973/1989
Genre: Rock
Notes: Discogs
Add. Notes:
Watch Songs on: YouTube
Cover incl.: Yes
Encoder: FLAC
Bitrate: ~800 kBit/s (44.1 kHz/16 Bit/s)
Log & Cue incl.: Yes/Yes
Size: 268,4 MB
Password: “slam” (without ” “)


All Downloads/Hosters are compatible

Download 1
KatFile.com
Turbobit.net
Rapidgator.net
FileFactory.com
Download 2
KatFile.com
Turbobit.net
Rapidgator.net
FileFactory.com

Tracklist:

1 Razamanaz 
2 Alcatraz 
3 Vigilante Man 
4 Woke Up This Morning 
5 Night Woman 
6 Bad, Bad Boy 
7 Sold My Soul 
8 Too Bad, Too Sad 
9 Broken Down Angel

EAC-Log, CUE-Sheed & NFO:

Click to open spoiler
Exact Audio Copy V1.0 beta 3 from 29. August 2011

EAC extraction logfile from 17. August 2014, 23:29

Nazareth / Razamanaz

Used drive : Optiarc DVD RW AD-7240S Adapter: 1 ID: 1

Read mode : Secure
Utilize accurate stream : Yes
Defeat audio cache : Yes
Make use of C2 pointers : No

Read offset correction : 48
Overread into Lead-In and Lead-Out : No
Fill up missing offset samples with silence : Yes
Delete leading and trailing silent blocks : No
Null samples used in CRC calculations : Yes
Used interface : Native Win32 interface for Win NT & 2000

Used output format : User Defined Encoder
Selected bitrate : 128 kBit/s
Quality : High
Add ID3 tag : No
Command line compressor : C:\Program Files (x86)\Exact Audio Copy\Flac\flac.exe
Additional command line options : -V -8 -T “Date=%year%” -T “Genre=%genre%” %source%

TOC of the extracted CD

Track | Start | Length | Start sector | End sector
———————————————————
1 | 0:00.32 | 3:51.18 | 32 | 17374
2 | 3:51.50 | 4:23.57 | 17375 | 37156
3 | 8:15.32 | 5:21.18 | 37157 | 61249
4 | 13:36.50 | 3:53.27 | 61250 | 78751
5 | 17:30.02 | 3:30.60 | 78752 | 94561
6 | 21:00.62 | 3:57.43 | 94562 | 112379
7 | 24:58.30 | 4:47.62 | 112380 | 133966
8 | 29:46.17 | 2:55.63 | 133967 | 147154
9 | 32:42.05 | 3:41.70 | 147155 | 163799

Range status and errors

Selected range

Filename I:\Nazareth discography\Studio\1973. Nazareth – Razamanaz\1973. Nazareth – Razamanaz (Castle CLACD173,France)\Nazareth – Razamanaz.wav

Peak level 99.9 %
Extraction speed 3.5 X
Range quality 100.0 %
Test CRC BF0369AC
Copy CRC BF0369AC
Copy OK

No errors occurred

AccurateRip summary

Track 1 accurately ripped (confidence 7) [7FE8F608] (AR v2)
Track 2 accurately ripped (confidence 8) [768B39F3] (AR v2)
Track 3 accurately ripped (confidence 8) [D5230039] (AR v2)
Track 4 accurately ripped (confidence 8) [43E495D0] (AR v2)
Track 5 accurately ripped (confidence 8) [091EDC55] (AR v2)
Track 6 accurately ripped (confidence 8) [920599B1] (AR v2)
Track 7 accurately ripped (confidence 8) [9E785037] (AR v2)
Track 8 accurately ripped (confidence 8) [4B0B62A8] (AR v2)
Track 9 accurately ripped (confidence 8) [F6A242ED] (AR v2)

All tracks accurately ripped

End of status report

—- CUETools DB Plugin V2.1.4

[CTDB TOCID: kVi54o3hZItdrI2YJw5gCywyiXs-] found
Submit result: kVi54o3hZItdrI2YJw5gCywyiXs- has been confirmed
Track | CTDB Status
1 | (3/3) Accurately ripped
2 | (3/3) Accurately ripped
3 | (3/3) Accurately ripped
4 | (3/3) Accurately ripped
5 | (3/3) Accurately ripped
6 | (3/3) Accurately ripped
7 | (3/3) Accurately ripped
8 | (3/3) Accurately ripped
9 | (3/3) Accurately ripped

==== Log checksum 22C41202360EF54E996A537EAF7D25D111E23C3D21F5E579639B1E927381306C ====

REM GENRE “Hard Rock”
REM DATE 1973
REM DISCID 74088809
REM COMMENT “ExactAudioCopy v1.0b3”
CATALOG 0000000000000
PERFORMER “Nazareth”
TITLE “Razamanaz”
FILE “Nazareth – Razamanaz.flac” WAVE
TRACK 01 AUDIO
TITLE “Razamanaz”
PERFORMER “Nazareth”
INDEX 00 00:00:00
INDEX 01 00:00:32
TRACK 02 AUDIO
TITLE “Alcatraz”
PERFORMER “Nazareth”
INDEX 00 03:49:47
INDEX 01 03:51:50
TRACK 03 AUDIO
TITLE “Vigilante Man”
PERFORMER “Nazareth”
INDEX 00 08:13:37
INDEX 01 08:15:32
TRACK 04 AUDIO
TITLE “Woke Up This Morning”
PERFORMER “Nazareth”
INDEX 00 13:35:00
INDEX 01 13:36:50
TRACK 05 AUDIO
TITLE “Night Woman”
PERFORMER “Nazareth”
INDEX 00 17:28:15
INDEX 01 17:30:02
TRACK 06 AUDIO
TITLE “Bad, Bad, Boy”
PERFORMER “Nazareth”
INDEX 00 20:59:10
INDEX 01 21:00:62
TRACK 07 AUDIO
TITLE “Sold My Soul”
PERFORMER “Nazareth”
INDEX 00 24:56:50
INDEX 01 24:58:30
TRACK 08 AUDIO
TITLE “Too Bad Too Sad”
PERFORMER “Nazareth”
INDEX 00 29:44:47
INDEX 01 29:46:17
TRACK 09 AUDIO
TITLE “Broken Down Angel”
PERFORMER “Nazareth”
INDEX 00 32:40:22
INDEX 01 32:42:05


Leave a Reply

Your email address will not be published. Required fields are marked *

Enter the text from the image below
 

This site uses Akismet to reduce spam. Learn how your comment data is processed.