Nazareth – Razamanaz (Remastered)




Artist: Nazareth
Year: 1973/2001
Genre: Rock
Notes: Discogs
Add. Notes: Remastered
Cover incl.: Yes
Encoder: FLAC
Bitrate: ~900 kBit/s (44.1 kHz/16 Bit/s)
Log & Cue incl.: Yes
Size: 425,54 MB
Password: “slam” (without ” “)


All Downloads/Hosters are compatible

Download 1
Turbobit.net
KatFile.com
Rapidgator.net
Download 2
Turbobit.net
KatFile.com
Rapidgator.net

Tracklist:

1. Razamanaz 
2. Alcatraz 
3. Vigilante Man 
4. Woke Up This Morning 
5. Night Woman 
6. Bad, Bad Boy 
7. Sold My Soul 
8. Too Bad, Too Sad 
9. Broken Down Angel 
Bonus Tracks
10. Hard Living 
11. Spinning Top 
12. Razamanaz (Alternate Edit)

EAC-Log, CUE-Sheed & NFO:

Click to open spoiler
Exact Audio Copy V1.1 from 23. June 2015

Отчёт EAC об извлечении, выполненном 16. августа 2016, 23:22

Nazareth / Razamanaz

Дисковод: TSSTcorpBDDVDW SE-506BB Adapter: 1 ID: 1

Режим чтения : Достоверность
Использование точного потока : Да
Отключение кэша аудио : Да
Использование указателей C2 : Нет

Коррекция смещения при чтении : 6
Способность читать области Lead-in и Lead-out : Нет
Заполнение пропущенных сэмплов тишиной : Да
Удаление блоков с тишиной в начале и конце : Нет
При вычислениях CRC использовались нулевые сэмплы : Да
Интерфейс : Встроенный Win32-интерфейс для Win NT/2000

Выходной формат : Внутренние WAV-операции
Формат сэмплов : 44.100 Гц; 16 бит; стерео

TOC извлечённого CD

Трек | Старт | Длительность | Начальный сектор | Конечный сектор
———————————————————————
1 | 0:00.00 | 3:52.17 | 0 | 17416
2 | 3:52.17 | 4:23.48 | 17417 | 37189
3 | 8:15.65 | 5:21.30 | 37190 | 61294
4 | 13:37.20 | 3:53.15 | 61295 | 78784
5 | 17:30.35 | 3:29.25 | 78785 | 94484
6 | 20:59.60 | 3:57.30 | 94485 | 112289
7 | 24:57.15 | 4:49.30 | 112290 | 133994
8 | 29:46.45 | 2:55.62 | 133995 | 147181
9 | 32:42.32 | 3:45.15 | 147182 | 164071
10 | 36:27.47 | 3:03.05 | 164072 | 177801
11 | 39:30.52 | 3:06.04 | 177802 | 191755
12 | 42:36.56 | 3:28.14 | 191756 | 207369

Характеристики диапазона извлечения и сообщения об ошибках

Выбранный диапазон

Имя файла D:\Temp\Nazareth – 1973 – Razamanaz [2001 Eagle Records, EAMCD132].wav

Пиковый уровень 100.0 %
Скорость извлечения 4.4 X
Качество диапазона 100.0 %
CRC теста 07EDC663
CRC копии 07EDC663
Копирование… OK

Ошибок не произошло

AccurateRip: сводка

Трек 1 : извлечено точно (доверие 13) [C0AC9C25] (AR v2)
Трек 2 : извлечено точно (доверие 12) [15E82119] (AR v2)
Трек 3 : извлечено точно (доверие 12) [4684EF4F] (AR v2)
Трек 4 : извлечено точно (доверие 13) [79420643] (AR v2)
Трек 5 : извлечено точно (доверие 13) [1ABFBE06] (AR v2)
Трек 6 : извлечено точно (доверие 13) [956AD066] (AR v2)
Трек 7 : извлечено точно (доверие 12) [396A75B4] (AR v2)
Трек 8 : извлечено точно (доверие 12) [C8F9A3C9] (AR v2)
Трек 9 : извлечено точно (доверие 13) [864259B9] (AR v2)
Трек 10 : извлечено точно (доверие 11) [25A5EF25] (AR v2)
Трек 11 : извлечено точно (доверие 12) [8D2633A8] (AR v2)
Трек 12 : извлечено точно (доверие 11) [33AAC8EB] (AR v2)

Все треки извлечены точно

Конец отчёта

==== Контрольная сумма отчёта 4635FF70188E098F77CF6B0A968D39A18289509A14BEB42A1A8D0D5444546B21 ====

REM GENRE “Hard Rock”
REM DATE 1973
REM DISCID BC0ACC0C
REM COMMENT “ExactAudioCopy v1.1”
PERFORMER “Nazareth”
TITLE “Razamanaz”
FILE “Nazareth – 1973 – Razamanaz [2001 Eagle Records, EAMCD132].flac” WAVE
TRACK 01 AUDIO
TITLE “Razamanaz”
PERFORMER “Nazareth”
INDEX 01 00:00:00
TRACK 02 AUDIO
TITLE “Alcatraz”
PERFORMER “Nazareth”
INDEX 01 03:52:17
TRACK 03 AUDIO
TITLE “Vigilante Man”
PERFORMER “Nazareth”
INDEX 01 08:15:65
TRACK 04 AUDIO
TITLE “Woke Up This Morning”
PERFORMER “Nazareth”
INDEX 01 13:37:20
TRACK 05 AUDIO
TITLE “Night Woman”
PERFORMER “Nazareth”
INDEX 01 17:30:35
TRACK 06 AUDIO
TITLE “Bad, Bad Boy”
PERFORMER “Nazareth”
INDEX 01 20:59:60
TRACK 07 AUDIO
TITLE “Sold my Soul”
PERFORMER “Nazareth”
INDEX 01 24:57:15
TRACK 08 AUDIO
TITLE “Too Bad, Too Sad”
PERFORMER “Nazareth”
INDEX 01 29:46:45
TRACK 09 AUDIO
TITLE “Broken Down Angel”
PERFORMER “Nazareth”
INDEX 01 32:42:32
TRACK 10 AUDIO
TITLE “Hard Living [*]”
PERFORMER “Nazareth”
INDEX 01 36:27:47
TRACK 11 AUDIO
TITLE “Spinning Top [*]”
PERFORMER “Nazareth”
INDEX 01 39:30:52
TRACK 12 AUDIO
TITLE “Razamanaz [*][alternate edit]”
PERFORMER “Nazareth”
INDEX 00 42:35:23
INDEX 01 42:36:56


Leave a Reply

Your email address will not be published. Required fields are marked *

This site uses Akismet to reduce spam. Learn how your comment data is processed.