Nazareth – Razamanaz (Reissue)




Artist: Nazareth
Year: 1973/1994
Genre: Rock
Notes: Discogs
Add. Notes: Reissue
Cover incl.: Yes
Encoder: FLAC
Bitrate: ~900 kBit/s (44.1 kHz/16 Bit/s)
Log & Cue incl.: Yes
Size: 261,9 MB
Password: “slam” (without ” “)


All Downloads/Hosters are compatible

Download 1
KatFile.com
Turbobit.net
FileFactory.com
Rapidgator.net
Download 2
KatFile.com
Turbobit.net
FileFactory.com
Rapidgator.net

Tracklist:

1 Razamanaz 3:50
2 Alcatraz 4:22
3 Vigilante Man 5:22
4 Woke Up This Morning 3:51
5 Night Woman 3:28
6 Bad, Bad Boy 3:56
7 Sold My Soul 4:47
8 Too Bad, Too Sad 2:54
9 Broken Down Angel 3:44

EAC-Log, CUE-Sheed & NFO:

Click to open spoiler
Exact Audio Copy V1.0 beta 4 from 7. December 2014

Отчёт EAC об извлечении, выполненном 2. марта 2015, 16:19

Nazareth / Razamanaz

Дисковод: SONY CD-RW CRX230ED Adapter: 1 ID: 0

Режим чтения : Достоверность
Использование точного потока : Да
Отключение кэша аудио : Да
Использование указателей C2 : Нет

Коррекция смещения при чтении : 6
Способность читать области Lead-in и Lead-out : Нет
Заполнение пропущенных сэмплов тишиной : Да
Удаление блоков с тишиной в начале и конце : Нет
При вычислениях CRC использовались нулевые сэмплы : Да
Интерфейс : Встроенный Win32-интерфейс для Win NT/2000

Выходной формат : Внутренние WAV-операции
Формат сэмплов : 44.100 Гц; 16 бит; стерео

TOC извлечённого CD

Трек | Старт | Длительность | Начальный сектор | Конечный сектор
———————————————————————
1 | 0:00.32 | 3:53.20 | 32 | 17526
2 | 3:53.52 | 4:25.55 | 17527 | 37456
3 | 8:19.32 | 5:25.03 | 37457 | 61834
4 | 13:44.35 | 3:53.50 | 61835 | 79359
5 | 17:38.10 | 3:29.55 | 79360 | 95089
6 | 21:07.65 | 3:58.07 | 95090 | 112946
7 | 25:05.72 | 4:51.13 | 112947 | 134784
8 | 29:57.10 | 2:56.20 | 134785 | 148004
9 | 32:53.30 | 3:44.27 | 148005 | 164831

Характеристики диапазона извлечения и сообщения об ошибках

Выбранный диапазон

Имя файла F:\MusicCD\Torrent\Nazareth – Razamanaz\Nazareth – Razamanaz.wav

Пиковый уровень 89.1 %
Скорость извлечения 6.7 X
Качество диапазона 100.0 %
CRC теста DC9D4F15
CRC копии DC9D4F15
Копирование… OK

Ошибок не произошло

AccurateRip: сводка

Трек 1 : извлечено точно (доверие 7) [696F167D] (AR v1)
Трек 2 : извлечено точно (доверие 7) [F9EC9689] (AR v1)
Трек 3 : извлечено точно (доверие 7) [0D1E8D4E] (AR v1)
Трек 4 : извлечено точно (доверие 7) [26EC480C] (AR v1)
Трек 5 : извлечено точно (доверие 7) [CCCF1D1E] (AR v1)
Трек 6 : извлечено точно (доверие 7) [40E07D6E] (AR v1)
Трек 7 : извлечено точно (доверие 7) [EC778A96] (AR v1)
Трек 8 : извлечено точно (доверие 7) [A2F2C53C] (AR v1)
Трек 9 : извлечено точно (доверие 7) [31ACD5EE] (AR v1)

Все треки извлечены точно

Конец отчёта

—- CUETools DB Plugin V2.1.4

[CTDB TOCID: GvqU8nNaxesvMqmRBkwnmzshGYQ-] found
Submit result: GvqU8nNaxesvMqmRBkwnmzshGYQ- has been confirmed
Track | CTDB Status
1 | (1/1) Accurately ripped
2 | (1/1) Accurately ripped
3 | (1/1) Accurately ripped
4 | (1/1) Accurately ripped
5 | (1/1) Accurately ripped
6 | (1/1) Accurately ripped
7 | (1/1) Accurately ripped
8 | (1/1) Accurately ripped
9 | (1/1) Accurately ripped

==== Контрольная сумма отчёта 25484901826C364DF6D4B21A0EF73D6F9248CB7B89863907286729F53FDF336F ====

REM GENRE Rock
REM DATE 1973
REM DISCID 78089509
REM COMMENT “ExactAudioCopy v1.0b4”
PERFORMER “Nazareth”
TITLE “Razamanaz”
FILE “Nazareth – Razamanaz.flac” WAVE
TRACK 01 AUDIO
TITLE “Razamanaz”
PERFORMER “Nazareth”
INDEX 00 00:00:00
INDEX 01 00:00:32
TRACK 02 AUDIO
TITLE “Alcatraz”
PERFORMER “Nazareth”
INDEX 00 03:51:12
INDEX 01 03:53:52
TRACK 03 AUDIO
TITLE “Vigilante Man”
PERFORMER “Nazareth”
INDEX 00 08:16:25
INDEX 01 08:19:32
TRACK 04 AUDIO
TITLE “Woke Up This Morning”
PERFORMER “Nazareth”
INDEX 00 13:41:67
INDEX 01 13:44:35
TRACK 05 AUDIO
TITLE “Night Woman”
PERFORMER “Nazareth”
INDEX 00 17:36:07
INDEX 01 17:38:10
TRACK 06 AUDIO
TITLE “Bad, Bad Boy”
PERFORMER “Nazareth”
INDEX 00 21:06:25
INDEX 01 21:07:65
TRACK 07 AUDIO
TITLE “Sold My Soul”
PERFORMER “Nazareth”
INDEX 00 25:03:72
INDEX 01 25:05:72
TRACK 08 AUDIO
TITLE “Too Bad, Too Sad”
PERFORMER “Nazareth”
INDEX 00 29:53:52
INDEX 01 29:57:10
TRACK 09 AUDIO
TITLE “Broken Down Angel”
PERFORMER “Nazareth”
INDEX 00 32:51:12
INDEX 01 32:53:30


Leave a Reply

Your email address will not be published. Required fields are marked *

This site uses Akismet to reduce spam. Learn how your comment data is processed.