Nazareth – Razamanaz (Reissue)




Artist: Nazareth
Year: 1973/1990
Genre: Rock
Notes: Discogs
Add. Notes: Reissue
Cover incl.: Yes
Encoder: FLAC
Bitrate: ~800 kBit/s (44.1 kHz/16 Bit/s)
Log & Cue incl.: Yes/Yes
Size: 265,9 MB
Password: “slam” (without ” “)


All Downloads/Hosters are compatible

Download 1
KatFile.com
Turbobit.net
FileFactory.com
Rapidgator.net
Download 2
KatFile.com
Turbobit.net
FileFactory.com
Rapidgator.net

Tracklist:

1 Razamanaz 3:51
2 Alcatraz 4:24
3 Vigilante Man 5:21
4 Woke Up This Morning 3:54
5 Night Woman 3:30
6 Bad, Bad Boy 3:58
7 Sold My Soul 4:48
8 Too Bad, Too Sad 2:56
9 Broken Down Angel 3:42

EAC-Log, CUE-Sheed & NFO:

Click to open spoiler
Exact Audio Copy V1.0 beta 3 from 29. August 2011

EAC extraction logfile from 4. August 2014, 14:41

Nazareth / Razamanaz

Used drive : SONY BD RW BDX-S600U Adapter: 2 ID: 1

Read mode : Secure
Utilize accurate stream : Yes
Defeat audio cache : Yes
Make use of C2 pointers : No

Read offset correction : 48
Overread into Lead-In and Lead-Out : No
Fill up missing offset samples with silence : Yes
Delete leading and trailing silent blocks : No
Null samples used in CRC calculations : Yes
Used interface : Native Win32 interface for Win NT & 2000

Used output format : User Defined Encoder
Selected bitrate : 128 kBit/s
Quality : High
Add ID3 tag : No
Command line compressor : C:\Program Files (x86)\Exact Audio Copy\Flac\flac.exe
Additional command line options : -V -8 -T “Date=%year%” -T “Genre=%genre%” %source%

TOC of the extracted CD

Track | Start | Length | Start sector | End sector
———————————————————
1 | 0:00.33 | 3:50.57 | 33 | 17339
2 | 3:51.15 | 4:23.63 | 17340 | 37127
3 | 8:15.03 | 5:21.20 | 37128 | 61222
4 | 13:36.23 | 3:53.25 | 61223 | 78722
5 | 17:29.48 | 3:30.62 | 78723 | 94534
6 | 21:00.35 | 3:57.40 | 94535 | 112349
7 | 24:58.00 | 4:47.63 | 112350 | 133937
8 | 29:45.63 | 2:55.62 | 133938 | 147124
9 | 32:41.50 | 3:43.25 | 147125 | 163874

Range status and errors

Selected range

Filename D:\Nazareth 1-st press\1973. Nazareth – Razamanaz (BR Music BO 7031-2,Holland)\Nazareth – Razamanaz.wav

Peak level 99.1 %
Extraction speed 6.1 X
Range quality 100.0 %
Test CRC 92BEB664
Copy CRC 92BEB664
Copy OK

No errors occurred

AccurateRip summary

Track 1 accurately ripped (confidence 2) [7AF166F7] (AR v2)
Track 2 accurately ripped (confidence 2) [1B378AF3] (AR v2)
Track 3 accurately ripped (confidence 2) [B24691EB] (AR v2)
Track 4 accurately ripped (confidence 2) [56F73018] (AR v2)
Track 5 accurately ripped (confidence 2) [61E7035B] (AR v2)
Track 6 accurately ripped (confidence 2) [809C5FB8] (AR v2)
Track 7 accurately ripped (confidence 2) [1C6919E7] (AR v2)
Track 8 accurately ripped (confidence 2) [D5369C3D] (AR v2)
Track 9 accurately ripped (confidence 2) [91B569C5] (AR v2)

All tracks accurately ripped

End of status report

—- CUETools DB Plugin V2.1.4

[CTDB TOCID: C.vBPCLsAApVnViuI0Ydx7Dkj7k-] found
Submit result: C.vBPCLsAApVnViuI0Ydx7Dkj7k- has been confirmed
Track | CTDB Status
1 | (1/1) Accurately ripped
2 | (1/1) Accurately ripped
3 | (1/1) Accurately ripped
4 | (1/1) Accurately ripped
5 | (1/1) Accurately ripped
6 | (1/1) Accurately ripped
7 | (1/1) Accurately ripped
8 | (1/1) Accurately ripped
9 | (1/1) Accurately ripped

==== Log checksum 4A908DE60340ED0488CEA0E631F194E63F031BAD091EFBAC65B9A30038E3386C ====

REM GENRE Rock
REM DATE 1973
REM DISCID 71088909
REM COMMENT “ExactAudioCopy v1.0b3”
CATALOG 0000000000000
PERFORMER “Nazareth”
TITLE “Razamanaz”
FILE “Nazareth – Razamanaz.flac” WAVE
TRACK 01 AUDIO
TITLE “Razamanaz”
PERFORMER “Nazareth”
INDEX 00 00:00:00
INDEX 01 00:00:33
TRACK 02 AUDIO
TITLE “Alcatraz”
PERFORMER “Nazareth”
INDEX 00 03:49:25
INDEX 01 03:51:15
TRACK 03 AUDIO
TITLE “Vigilante man”
PERFORMER “Nazareth”
INDEX 00 08:13:13
INDEX 01 08:15:03
TRACK 04 AUDIO
TITLE “Woke up this morning”
PERFORMER “Nazareth”
INDEX 00 13:34:65
INDEX 01 13:36:23
TRACK 05 AUDIO
TITLE “Night woman”
PERFORMER “Nazareth”
INDEX 00 17:28:08
INDEX 01 17:29:48
TRACK 06 AUDIO
TITLE “Bad, bad boy”
PERFORMER “Nazareth”
INDEX 00 20:59:15
INDEX 01 21:00:35
TRACK 07 AUDIO
TITLE “Sold my soul”
PERFORMER “Nazareth”
INDEX 00 24:56:08
INDEX 01 24:58:00
TRACK 08 AUDIO
TITLE “Too bad, too sad”
PERFORMER “Nazareth”
INDEX 00 29:44:73
INDEX 01 29:45:63
TRACK 09 AUDIO
TITLE “Broken down angel”
PERFORMER “Nazareth”
INDEX 00 32:40:60
INDEX 01 32:41:50


Leave a Reply

Your email address will not be published. Required fields are marked *

Enter the text from the image below
 

This site uses Akismet to reduce spam. Learn how your comment data is processed.