Nazareth – Razamanaz (Limited Remastered Japanese Edition)




Artist: Nazareth
Year: 1973/2006
Genre: Rock
Notes: Discogs
Add. Notes: Limited Remastered Japanese Edition
Cover incl.: Yes
Encoder: FLAC
Bitrate: ~900 kBit/s (44.1 kHz/16 Bit/s)
Log & Cue incl.: Yes
Size: 310 MB
Password: “slam” (without ” “)


All Downloads/Hosters are compatible

Download 1
KatFile.com
Rapidgator.net
Turbobit.net
FileFactory.com
Download 2
KatFile.com
Rapidgator.net
Turbobit.net
FileFactory.com

Tracklist:

1 - Razamanaz - 3:51
2 - Alcatraz - 4:24
3 - Vigilante Man - 5:21
4 - Woke Up This Morning - 3:53
5 - Night Woman - 3:29
6 - Bad, Bad Boy - 3:58
7 - Sold My Soul - 4:49
8 - Too Bad, Too Sad - 2:56
9 - Broken Down Angel - 3:53
Bonus Tracks
10 - Hard Living - 3:04
11 - Spinning Top - 3:08
12 - Razamanaz -Alternate Edit 
Version- - 3:31

EAC-Log, CUE-Sheed & NFO:

Click to open spoiler
Exact Audio Copy V1.0 beta 6 from 9. April 2015

EAC extraction logfile from 22. April 2015, 19:30

Nazareth / Razamanaz (AIRAC-1202)

Used drive : PLEXTOR DVDR PX-891SA Adapter: 1 ID: 0

Read mode : Secure
Utilize accurate stream : Yes
Defeat audio cache : Yes
Make use of C2 pointers : No

Read offset correction : 6
Overread into Lead-In and Lead-Out : No
Fill up missing offset samples with silence : Yes
Delete leading and trailing silent blocks : No
Null samples used in CRC calculations : Yes
Used interface : Native Win32 interface for Win NT & 2000

Used output format : User Defined Encoder
Selected bitrate : 1024 kBit/s
Quality : High
Add ID3 tag : No
Command line compressor : C:\Program Files\Exact Audio Copy\Flac\flac.exe
Additional command line options : -V -8 -T “Genre=%genre%” -T “Artist=%artist%” -T “Title=%title%” -T “Album=%albumtitle%” -T “Date=%year%” -T “Tracknumber=%tracknr%” -T “Comment=%comment%” %source%

TOC of the extracted CD

Track | Start | Length | Start sector | End sector
———————————————————
1 | 0:00.00 | 3:51.34 | 0 | 17358
2 | 3:51.34 | 4:23.45 | 17359 | 37128
3 | 8:15.04 | 5:21.30 | 37129 | 61233
4 | 13:36.34 | 3:53.14 | 61234 | 78722
5 | 17:29.48 | 3:29.25 | 78723 | 94422
6 | 20:58.73 | 3:57.29 | 94423 | 112226
7 | 24:56.27 | 4:49.32 | 112227 | 133933
8 | 29:45.59 | 3:04.70 | 133934 | 147803
9 | 32:50.54 | 3:47.42 | 147804 | 164870
10 | 36:38.21 | 3:04.29 | 164871 | 178699
11 | 39:42.50 | 3:07.24 | 178700 | 192748
12 | 42:49.74 | 3:31.25 | 192749 | 208598

Range status and errors

Selected range

Filename H:\dafnaplus\Nazareth\1973 Razamanaz\Nazareth – Razamanaz (AIRAC-1202).wav

Peak level 96.6 %
Extraction speed 7.8 X
Range quality 100.0 %
Test CRC 59C5937B
Copy CRC 59C5937B
Copy OK

No errors occurred

AccurateRip summary

Track 1 accurately ripped (confidence 3) [25828C51] (AR v1)
Track 2 accurately ripped (confidence 3) [119ED75C] (AR v1)
Track 3 accurately ripped (confidence 3) [F7B9D5E1] (AR v1)
Track 4 accurately ripped (confidence 3) [489EA9BA] (AR v1)
Track 5 accurately ripped (confidence 3) [353C885B] (AR v1)
Track 6 accurately ripped (confidence 3) [F8EF1074] (AR v1)
Track 7 accurately ripped (confidence 3) [2BF87CA4] (AR v1)
Track 8 accurately ripped (confidence 3) [AC6852D6] (AR v1)
Track 9 accurately ripped (confidence 3) [07D32862] (AR v1)
Track 10 accurately ripped (confidence 3) [8488EC1B] (AR v1)
Track 11 accurately ripped (confidence 3) [DA898693] (AR v1)
Track 12 accurately ripped (confidence 3) [EA8AA13D] (AR v1)

All tracks accurately ripped

End of status report

—- CUETools DB Plugin V2.1.6

[CTDB TOCID: UwumP0wYCTkP1MIlK0M4q2iVqi0-] found
Submit result: already submitted
Track | CTDB Status
1 | (1/1) Accurately ripped
2 | (1/1) Accurately ripped
3 | (1/1) Accurately ripped
4 | (1/1) Accurately ripped
5 | (1/1) Accurately ripped
6 | (1/1) Accurately ripped
7 | (1/1) Accurately ripped
8 | (1/1) Accurately ripped
9 | (1/1) Accurately ripped
10 | (1/1) Accurately ripped
11 | (1/1) Accurately ripped
12 | (1/1) Accurately ripped

==== Log checksum C85BC8CAEF5CA2247206110AB7581E92A1191CAA7EF552C0C5E0687925811387 ====

REM GENRE Rock
REM DATE 2006
REM DISCID A30ADD0C
REM COMMENT “ExactAudioCopy v1.0b6”
CATALOG 0000000000000
PERFORMER “Nazareth”
TITLE “Razamanaz (AIRAC-1202)”
FILE “Nazareth – Razamanaz (AIRAC-1202).flac” WAVE
TRACK 01 AUDIO
TITLE “Razamanaz”
PERFORMER “Nazareth”
ISRC GBCBR0402384
INDEX 01 00:00:00
TRACK 02 AUDIO
TITLE “Alcatraz”
PERFORMER “Nazareth”
ISRC GBCBR0402403
INDEX 01 03:51:34
TRACK 03 AUDIO
TITLE “Vigilante Man”
PERFORMER “Nazareth”
ISRC GBCBR0402404
INDEX 01 08:15:04
TRACK 04 AUDIO
TITLE “Woke Up This Morning”
PERFORMER “Nazareth”
ISRC GBCBR0402405
INDEX 01 13:36:34
TRACK 05 AUDIO
TITLE “Night Woman”
PERFORMER “Nazareth”
ISRC GBCBR0402406
INDEX 01 17:29:48
TRACK 06 AUDIO
TITLE “Bad, Bad Boy”
PERFORMER “Nazareth”
ISRC GBCBR0402407
INDEX 01 20:58:73
TRACK 07 AUDIO
TITLE “Sold My Soul”
PERFORMER “Nazareth”
ISRC GBCBR0402408
INDEX 01 24:56:27
TRACK 08 AUDIO
TITLE “Too Bad, Too Sad”
PERFORMER “Nazareth”
ISRC GBCBR0402409
INDEX 01 29:45:59
TRACK 09 AUDIO
TITLE “Broken Down Angel”
PERFORMER “Nazareth”
ISRC GBCBR0402410
INDEX 00 32:41:50
INDEX 01 32:50:54
TRACK 10 AUDIO
TITLE “Hard Living (Bonus Track)”
PERFORMER “Nazareth”
ISRC GBCBR0402411
INDEX 01 36:38:21
TRACK 11 AUDIO
TITLE “Spinning Top (Bonus Track)”
PERFORMER “Nazareth”
ISRC GBCBR0402412
INDEX 01 39:42:50
TRACK 12 AUDIO
TITLE “Razamanaz (Bonus Track, Alternate Edit Version)”
PERFORMER “Nazareth”
ISRC GBCBR0402413
INDEX 01 42:49:74


Leave a Reply

Your email address will not be published. Required fields are marked *

Enter the text from the image below
 

This site uses Akismet to reduce spam. Learn how your comment data is processed.