Nazareth – Rampant (Remastered)




Artist: Nazareth
Year: 1974/2001
Genre: Rock
Notes: Discogs
Add. Notes: Remastered
Cover incl.: Yes
Encoder: FLAC
Bitrate: ~800 kBit/s (44.1 kHz/16 Bit/s)
Log & Cue incl.: Yes
Size: 517,66 MB
Password: “slam” (without ” “)


All Downloads/Hosters are compatible

Download 1
Turbobit.net
KatFile.com
Rapidgator.net
Download 2
Turbobit.net
KatFile.com
Rapidgator.net

Tracklist:

1 - Silver Dollar Forger (Parts 1 & 2) - 5:36
2 - Glad When You're Gone - 4:17
3 - Loved And Lost - 5:12
4 - Shanghai'd In Shanghai - 3:43
5 - Jet Lag - 6:44
6 - Light My Way - 4:09
7 - Sunshine - 4:16
8 - Shapes Of Things - 5:32
9 - Space Safari - 0:55
Bonus Track
10 - Shanghai'd In Shanghai (US Single Edit) - 3:45
11 - Shapes Of Things (Single Edit) - 3:23
12 - Sunshine (Edited Version) - 3:00
13 - Silver Dollar Forger (Edited Version) - 3:52

EAC-Log, CUE-Sheed & NFO:

Click to open spoiler
Exact Audio Copy V1.1 from 23. June 2015

Отчёт EAC об извлечении, выполненном 17. августа 2016, 11:14

Nazareth / Rampant

Дисковод: TSSTcorpBDDVDW SE-506BB Adapter: 1 ID: 1

Режим чтения : Достоверность
Использование точного потока : Да
Отключение кэша аудио : Да
Использование указателей C2 : Нет

Коррекция смещения при чтении : 6
Способность читать области Lead-in и Lead-out : Нет
Заполнение пропущенных сэмплов тишиной : Да
Удаление блоков с тишиной в начале и конце : Нет
При вычислениях CRC использовались нулевые сэмплы : Да
Интерфейс : Встроенный Win32-интерфейс для Win NT/2000

Выходной формат : Внутренние WAV-операции
Формат сэмплов : 44.100 Гц; 16 бит; стерео

TOC извлечённого CD

Трек | Старт | Длительность | Начальный сектор | Конечный сектор
———————————————————————
1 | 0:00.00 | 5:36.62 | 0 | 25261
2 | 5:36.62 | 4:17.25 | 25262 | 44561
3 | 9:54.12 | 5:12.40 | 44562 | 68001
4 | 15:06.52 | 3:43.20 | 68002 | 84746
5 | 18:49.72 | 6:43.30 | 84747 | 115001
6 | 25:33.27 | 4:09.15 | 115002 | 133691
7 | 29:42.42 | 4:15.50 | 133692 | 152866
8 | 33:58.17 | 6:21.45 | 152867 | 181486
9 | 40:19.62 | 3:43.15 | 181487 | 198226
10 | 44:03.02 | 3:21.06 | 198227 | 213307
11 | 47:24.08 | 2:59.56 | 213308 | 226788
12 | 50:23.64 | 3:49.50 | 226789 | 244013

Характеристики диапазона извлечения и сообщения об ошибках

Выбранный диапазон

Имя файла D:\Temp\Nazareth – 1974 – Rampant [2001 Eagle Records, EAMCD134].wav

Пиковый уровень 100.0 %
Скорость извлечения 4.6 X
Качество диапазона 100.0 %
CRC теста F30294AD
CRC копии F30294AD
Копирование… OK

Ошибок не произошло

AccurateRip: сводка

Трек 1 : извлечено точно (доверие 10) [3AC60018] (AR v2)
Трек 2 : извлечено точно (доверие 10) [1462D965] (AR v2)
Трек 3 : извлечено точно (доверие 10) [CD930550] (AR v2)
Трек 4 : извлечено точно (доверие 10) [4F6280A0] (AR v2)
Трек 5 : извлечено точно (доверие 10) [1FDBEE44] (AR v2)
Трек 6 : извлечено точно (доверие 10) [2AD5D5D1] (AR v2)
Трек 7 : извлечено точно (доверие 9) [9080364F] (AR v2)
Трек 8 : извлечено точно (доверие 10) [70615DB9] (AR v2)
Трек 9 : извлечено точно (доверие 8) [F0803708] (AR v2)
Трек 10 : извлечено точно (доверие 8) [B96DBBCA] (AR v2)
Трек 11 : извлечено точно (доверие 8) [F372F231] (AR v2)
Трек 12 : извлечено точно (доверие 8) [97881C2C] (AR v2)

Все треки извлечены точно

Конец отчёта

==== Контрольная сумма отчёта C705560F1942DE77BE560B3A8493FD3B2DF5C6B86A1692D54C8D768C27C237F3 ====

REM GENRE “Hard Rock”
REM DATE 1974
REM DISCID 9B0CB50C
REM COMMENT “ExactAudioCopy v1.1”
PERFORMER “Nazareth”
TITLE “Rampant”
FILE “Nazareth – 1974 – Rampant [2001 Eagle Records, EAMCD134].flac” WAVE
TRACK 01 AUDIO
TITLE “Silver Dollar Forger (Parts I & II)”
PERFORMER “Nazareth”
INDEX 01 00:00:00
TRACK 02 AUDIO
TITLE “Glad When You’re Gone”
PERFORMER “Nazareth”
INDEX 01 05:36:62
TRACK 03 AUDIO
TITLE “Loved And Lost”
PERFORMER “Nazareth”
INDEX 01 09:54:12
TRACK 04 AUDIO
TITLE “Shanghai’d In Sanghai”
PERFORMER “Nazareth”
INDEX 01 15:06:52
TRACK 05 AUDIO
TITLE “Jet Lag”
PERFORMER “Nazareth”
INDEX 01 18:49:72
TRACK 06 AUDIO
TITLE “Light My Way”
PERFORMER “Nazareth”
INDEX 01 25:33:27
TRACK 07 AUDIO
TITLE “Sunshine”
PERFORMER “Nazareth”
INDEX 01 29:42:42
TRACK 08 AUDIO
TITLE “Shapes Of Things / Space Safari”
PERFORMER “Nazareth”
INDEX 01 33:58:17
TRACK 09 AUDIO
TITLE “Shanghai’d In Shanghai [*][US version]”
PERFORMER “Nazareth”
INDEX 00 40:15:15
INDEX 01 40:19:62
TRACK 10 AUDIO
TITLE “Shapes Of Things [*][7” edit]”
PERFORMER “Nazareth”
INDEX 00 44:01:03
INDEX 01 44:03:02
TRACK 11 AUDIO
TITLE “Sunshine [*][edited version]”
PERFORMER “Nazareth”
INDEX 00 47:21:43
INDEX 01 47:24:08
TRACK 12 AUDIO
TITLE “Silver Dollar Forger [*][edited version]”
PERFORMER “Nazareth”
INDEX 00 50:21:11
INDEX 01 50:23:64


Leave a Reply

Your email address will not be published. Required fields are marked *

This site uses Akismet to reduce spam. Learn how your comment data is processed.