Nazareth – Rampant (Reissue)




Artist: Nazareth
Year: 1974
Genre: Rock
Notes: Discogs
Add. Notes: Reissue
Cover incl.: Yes
Encoder: FLAC
Bitrate: ~800 kBit/s (44.1 kHz/16 Bit/s)
Log & Cue incl.: Yes
Size: 320,4 MB
Password: “slam” (without ” “)


All Downloads/Hosters are compatible

Download 1
KatFile.com
Turbobit.net
FileFactory.com
Rapidgator.net
Download 2
KatFile.com
Turbobit.net
FileFactory.com
Rapidgator.net

Tracklist:

1 Silver Dollar Forger (Parts 1 & 2) 5:41
2 Glad When You're Gone 4:19
3 Loved And Lost 5:14
4 Shanghai'd In Shanghai 3:47
5 Jet Lag 6:42
6 Light My Way 4:11
7 Sunshine 4:15
8a Shapes Of Things 
8b Space Safari 6:22

EAC-Log, CUE-Sheed & NFO:

Click to open spoiler
Exact Audio Copy V1.0 beta 3 from 29. August 2011

EAC extraction logfile from 4. August 2014, 14:59

Nazareth / Rampant

Used drive : SONY BD RW BDX-S600U Adapter: 2 ID: 1

Read mode : Secure
Utilize accurate stream : Yes
Defeat audio cache : Yes
Make use of C2 pointers : No

Read offset correction : 48
Overread into Lead-In and Lead-Out : No
Fill up missing offset samples with silence : Yes
Delete leading and trailing silent blocks : No
Null samples used in CRC calculations : Yes
Used interface : Native Win32 interface for Win NT & 2000

Used output format : User Defined Encoder
Selected bitrate : 128 kBit/s
Quality : High
Add ID3 tag : No
Command line compressor : C:\Program Files (x86)\Exact Audio Copy\Flac\flac.exe
Additional command line options : -V -8 -T “Date=%year%” -T “Genre=%genre%” %source%

TOC of the extracted CD

Track | Start | Length | Start sector | End sector
———————————————————
1 | 0:00.33 | 5:40.37 | 33 | 25569
2 | 5:40.70 | 4:19.13 | 25570 | 45007
3 | 10:00.08 | 5:13.72 | 45008 | 68554
4 | 15:14.05 | 3:47.03 | 68555 | 85582
5 | 19:01.08 | 6:41.62 | 85583 | 115719
6 | 25:42.70 | 4:10.53 | 115720 | 134522
7 | 29:53.48 | 4:15.50 | 134523 | 153697
8 | 34:09.23 | 6:22.52 | 153698 | 182399

Range status and errors

Selected range

Filename D:\Nazareth 1-st press\1974. Nazareth – Rampant (BR Music BO 7034-2,Holland\Nazareth – Rampant.wav

Peak level 99.2 %
Extraction speed 6.2 X
Range quality 100.0 %
Test CRC B5626CE6
Copy CRC B5626CE6
Copy OK

No errors occurred

AccurateRip summary

Track 1 accurately ripped (confidence 4) [A5F84BF3] (AR v2)
Track 2 accurately ripped (confidence 4) [56E79DFC] (AR v2)
Track 3 accurately ripped (confidence 4) [FD886D1B] (AR v2)
Track 4 accurately ripped (confidence 4) [E7AC5F92] (AR v2)
Track 5 accurately ripped (confidence 4) [E3EAFE3C] (AR v2)
Track 6 accurately ripped (confidence 4) [A1EA6212] (AR v2)
Track 7 accurately ripped (confidence 4) [6DD02F01] (AR v2)
Track 8 accurately ripped (confidence 4) [4C3A42FA] (AR v2)

All tracks accurately ripped

End of status report

—- CUETools DB Plugin V2.1.4

[CTDB TOCID: ZN1GVp4_fWupW7S9WZVTOU4vIK4-] found
Submit result: ZN1GVp4_fWupW7S9WZVTOU4vIK4- has been confirmed
Track | CTDB Status
1 | (1/1) Accurately ripped
2 | (1/1) Accurately ripped
3 | (1/1) Accurately ripped
4 | (1/1) Accurately ripped
5 | (1/1) Accurately ripped
6 | (1/1) Accurately ripped
7 | (1/1) Accurately ripped
8 | (1/1) Accurately ripped

==== Log checksum 28C0643C0432F94811B08D5E2701853EA468F7F97A3CC30D7F4BBAB29647E692 ====

REM GENRE Rock
REM DATE 1974
REM DISCID 58098008
REM COMMENT “ExactAudioCopy v1.0b3”
CATALOG 0000000000000
PERFORMER “Nazareth”
TITLE “Rampant”
FILE “Nazareth – Rampant.flac” WAVE
TRACK 01 AUDIO
TITLE “Silver dollar forger (parts 1 & 2)”
PERFORMER “Nazareth”
INDEX 00 00:00:00
INDEX 01 00:00:33
TRACK 02 AUDIO
TITLE “Glad when you’re gone”
PERFORMER “Nazareth”
INDEX 00 05:38:33
INDEX 01 05:40:70
TRACK 03 AUDIO
TITLE “Loved and lost”
PERFORMER “Nazareth”
INDEX 01 10:00:08
TRACK 04 AUDIO
TITLE “Shanghai’d in Shanghai”
PERFORMER “Nazareth”
INDEX 01 15:14:05
TRACK 05 AUDIO
TITLE “Jet lag”
PERFORMER “Nazareth”
INDEX 00 18:58:40
INDEX 01 19:01:08
TRACK 06 AUDIO
TITLE “Light my way”
PERFORMER “Nazareth”
INDEX 01 25:42:70
TRACK 07 AUDIO
TITLE “Sunshine”
PERFORMER “Nazareth”
INDEX 00 29:52:23
INDEX 01 29:53:48
TRACK 08 AUDIO
TITLE “A. Shapes of things B. Space safari”
PERFORMER “Nazareth”
INDEX 01 34:09:23


Leave a Reply

Your email address will not be published. Required fields are marked *

Enter the text from the image below
 

This site uses Akismet to reduce spam. Learn how your comment data is processed.