Nazareth – Play ‘n’ The Game (Remastered)




[Total: 0    Average: 0/5]

Artist: Nazareth
Year: 1976/2002
Genre: Rock
Notes: Discogs
Add. Notes: Remastered
Cover incl.: Yes
Encoder: FLAC
Bitrate: ~900 kBit/s (44.1 kHz/16 Bit/s)
Log & Cue incl.: Yes
Size: 524,92 MB
Password: “slam” (without ” “)


All Downloads/Hosters are compatible

Download 1
Share-online.biz
KatFile.com
Rapidgator.net
Download 2
Share-online.biz
KatFile.com
Rapidgator.net

Tracklist:

1 - Somebody To Roll - 3:54
2 - Down Home Girl - 5:04
3 - Flying - 4:20
4 - Waiting For The Man - 4:54
5 - Born To Love - 3:58
6 - I Want To Do Everything For You - 4:19
7 - I Don't Want To Go On Without You - 3:46
8 - Wild Honey - 3:04
9 - L.A. Girls - 3:56
Bonus Tracks
10 - Good Love - 3:53
11 - I Don't Want To Go On Without You (Alternate Edit 
Version) - 3:25
12 - Waiting For The Man (Alternate Edit Version) - 6:13
13 - Somebody To Roll (Edit Version) - 3:32
14 - Born To Love (Edit Version) - 3:37

EAC-Log, CUE-Sheed & NFO:

Click to open spoiler
Exact Audio Copy V1.1 from 23. June 2015

Отчёт EAC об извлечении, выполненном 17. августа 2016, 18:15

Nazareth / Play ‘n’ The Game

Дисковод: TSSTcorpBDDVDW SE-506BB Adapter: 1 ID: 1

Режим чтения : Достоверность
Использование точного потока : Да
Отключение кэша аудио : Да
Использование указателей C2 : Нет

Коррекция смещения при чтении : 6
Способность читать области Lead-in и Lead-out : Нет
Заполнение пропущенных сэмплов тишиной : Да
Удаление блоков с тишиной в начале и конце : Нет
При вычислениях CRC использовались нулевые сэмплы : Да
Интерфейс : Встроенный Win32-интерфейс для Win NT/2000

Выходной формат : Внутренние WAV-операции
Формат сэмплов : 44.100 Гц; 16 бит; стерео

TOC извлечённого CD

Трек | Старт | Длительность | Начальный сектор | Конечный сектор
———————————————————————
1 | 0:00.00 | 3:55.36 | 0 | 17660
2 | 3:55.36 | 5:04.51 | 17661 | 40511
3 | 9:00.12 | 4:20.66 | 40512 | 60077
4 | 13:21.03 | 4:53.46 | 60078 | 82098
5 | 18:14.49 | 3:58.56 | 82099 | 100004
6 | 22:13.30 | 4:18.59 | 100005 | 119413
7 | 26:32.14 | 3:46.54 | 119414 | 136417
8 | 30:18.68 | 3:04.30 | 136418 | 150247
9 | 33:23.23 | 3:52.21 | 150248 | 167668
10 | 37:15.44 | 3:51.58 | 167669 | 185051
11 | 41:07.27 | 3:23.41 | 185052 | 200317
12 | 44:30.68 | 6:12.51 | 200318 | 228268
13 | 50:43.44 | 3:30.11 | 228269 | 244029
14 | 54:13.55 | 3:33.02 | 244030 | 260006

Характеристики диапазона извлечения и сообщения об ошибках

Выбранный диапазон

Имя файла D:\Temp\Nazareth – 1976 – Play ‘n’ The Game [2002 Eagle Records, EAMCD139].wav

Пиковый уровень 100.0 %
Скорость извлечения 4.4 X
Качество диапазона 99.9 %
CRC теста DFA43A72
CRC копии DFA43A72
Копирование… OK

Ошибок не произошло

AccurateRip: сводка

Трек 1 : извлечено точно (доверие 9) [2278AF41] (AR v2)
Трек 2 : извлечено точно (доверие 10) [311D8C83] (AR v2)
Трек 3 : извлечено точно (доверие 9) [0E29D100] (AR v2)
Трек 4 : извлечено точно (доверие 10) [36096646] (AR v2)
Трек 5 : извлечено точно (доверие 10) [EEA58A88] (AR v2)
Трек 6 : извлечено точно (доверие 10) [EA51D910] (AR v2)
Трек 7 : извлечено точно (доверие 9) [E53AB57A] (AR v2)
Трек 8 : извлечено точно (доверие 9) [C7AF3158] (AR v2)
Трек 9 : извлечено точно (доверие 10) [2B2D88DD] (AR v2)
Трек 10 : извлечено точно (доверие 6) [7A623D7A] (AR v2)
Трек 11 : извлечено точно (доверие 6) [0E75C171] (AR v2)
Трек 12 : извлечено точно (доверие 6) [E323F54D] (AR v2)
Трек 13 : извлечено точно (доверие 6) [228D6CDA] (AR v2)
Трек 14 : извлечено точно (доверие 6) [EB1B3C3F] (AR v2)

Все треки извлечены точно

Конец отчёта

==== Контрольная сумма отчёта 4BF88D66875CC019877A883761362FBC9AAB242700411CC47B8919B5D9FD2BFC ====
Exact Audio Copy V1.1 from 23. June 2015

Отчёт EAC об извлечении, выполненном 17. августа 2016, 18:15

Nazareth / Play ‘n’ The Game

Дисковод: TSSTcorpBDDVDW SE-506BB Adapter: 1 ID: 1

Режим чтения : Достоверность
Использование точного потока : Да
Отключение кэша аудио : Да
Использование указателей C2 : Нет

Коррекция смещения при чтении : 6
Способность читать области Lead-in и Lead-out : Нет
Заполнение пропущенных сэмплов тишиной : Да
Удаление блоков с тишиной в начале и конце : Нет
При вычислениях CRC использовались нулевые сэмплы : Да
Интерфейс : Встроенный Win32-интерфейс для Win NT/2000

Выходной формат : Внутренние WAV-операции
Формат сэмплов : 44.100 Гц; 16 бит; стерео

TOC извлечённого CD

Трек | Старт | Длительность | Начальный сектор | Конечный сектор
———————————————————————
1 | 0:00.00 | 3:55.36 | 0 | 17660
2 | 3:55.36 | 5:04.51 | 17661 | 40511
3 | 9:00.12 | 4:20.66 | 40512 | 60077
4 | 13:21.03 | 4:53.46 | 60078 | 82098
5 | 18:14.49 | 3:58.56 | 82099 | 100004
6 | 22:13.30 | 4:18.59 | 100005 | 119413
7 | 26:32.14 | 3:46.54 | 119414 | 136417
8 | 30:18.68 | 3:04.30 | 136418 | 150247
9 | 33:23.23 | 3:52.21 | 150248 | 167668
10 | 37:15.44 | 3:51.58 | 167669 | 185051
11 | 41:07.27 | 3:23.41 | 185052 | 200317
12 | 44:30.68 | 6:12.51 | 200318 | 228268
13 | 50:43.44 | 3:30.11 | 228269 | 244029
14 | 54:13.55 | 3:33.02 | 244030 | 260006

Характеристики диапазона извлечения и сообщения об ошибках

Выбранный диапазон

Имя файла D:\Temp\Nazareth – 1976 – Play ‘n’ The Game [2002 Eagle Records, EAMCD139].wav

Пиковый уровень 100.0 %
Скорость извлечения 4.4 X
Качество диапазона 99.9 %
CRC теста DFA43A72
CRC копии DFA43A72
Копирование… OK

Ошибок не произошло

AccurateRip: сводка

Трек 1 : извлечено точно (доверие 9) [2278AF41] (AR v2)
Трек 2 : извлечено точно (доверие 10) [311D8C83] (AR v2)
Трек 3 : извлечено точно (доверие 9) [0E29D100] (AR v2)
Трек 4 : извлечено точно (доверие 10) [36096646] (AR v2)
Трек 5 : извлечено точно (доверие 10) [EEA58A88] (AR v2)
Трек 6 : извлечено точно (доверие 10) [EA51D910] (AR v2)
Трек 7 : извлечено точно (доверие 9) [E53AB57A] (AR v2)
Трек 8 : извлечено точно (доверие 9) [C7AF3158] (AR v2)
Трек 9 : извлечено точно (доверие 10) [2B2D88DD] (AR v2)
Трек 10 : извлечено точно (доверие 6) [7A623D7A] (AR v2)
Трек 11 : извлечено точно (доверие 6) [0E75C171] (AR v2)
Трек 12 : извлечено точно (доверие 6) [E323F54D] (AR v2)
Трек 13 : извлечено точно (доверие 6) [228D6CDA] (AR v2)
Трек 14 : извлечено точно (доверие 6) [EB1B3C3F] (AR v2)

Все треки извлечены точно

Конец отчёта

==== Контрольная сумма отчёта 4BF88D66875CC019877A883761362FBC9AAB242700411CC47B8919B5D9FD2BFC ====

REM GENRE “Hard Rock”
REM DATE 1976
REM DISCID B40D8A0E
REM COMMENT “ExactAudioCopy v1.1”
PERFORMER “Nazareth”
TITLE “Play ‘n’ The Game”
FILE “Nazareth – 1976 – Play ‘n’ The Game [2002 Eagle Records, EAMCD139].flac” WAVE
TRACK 01 AUDIO
TITLE “Somebody To Roll”
PERFORMER “Nazareth”
INDEX 01 00:00:00
TRACK 02 AUDIO
TITLE “Down Home Girl”
PERFORMER “Nazareth”
INDEX 00 03:53:56
INDEX 01 03:55:36
TRACK 03 AUDIO
TITLE “Flying”
PERFORMER “Nazareth”
INDEX 00 08:58:26
INDEX 01 09:00:12
TRACK 04 AUDIO
TITLE “Waiting For The Man”
PERFORMER “Nazareth”
INDEX 00 13:18:50
INDEX 01 13:21:03
TRACK 05 AUDIO
TITLE “Born To Love”
PERFORMER “Nazareth”
INDEX 00 18:12:57
INDEX 01 18:14:49
TRACK 06 AUDIO
TITLE “I Want To Do Everything For You”
PERFORMER “Nazareth”
INDEX 00 22:11:44
INDEX 01 22:13:30
TRACK 07 AUDIO
TITLE “I Don’t Want To Go On Without You”
PERFORMER “Nazareth”
INDEX 00 26:30:27
INDEX 01 26:32:14
TRACK 08 AUDIO
TITLE “Wild Honey”
PERFORMER “Nazareth”
INDEX 00 30:17:05
INDEX 01 30:18:68
TRACK 09 AUDIO
TITLE “L.A. Girls”
PERFORMER “Nazareth”
INDEX 00 33:21:27
INDEX 01 33:23:23
TRACK 10 AUDIO
TITLE “Good Love [*][B-side]”
PERFORMER “Nazareth”
INDEX 00 37:10:54
INDEX 01 37:15:44
TRACK 11 AUDIO
TITLE “I Don’t Want To Go On Without You [*][alternate edit]”
PERFORMER “Nazareth”
INDEX 00 41:05:48
INDEX 01 41:07:27
TRACK 12 AUDIO
TITLE “Waiting For The Man [*][alternate edit]”
PERFORMER “Nazareth”
INDEX 00 44:29:12
INDEX 01 44:30:68
TRACK 13 AUDIO
TITLE “Somebody To Roll [*][edit]”
PERFORMER “Nazareth”
INDEX 00 50:41:63
INDEX 01 50:43:44
TRACK 14 AUDIO
TITLE “Born To Love [*][edited version]”
PERFORMER “Nazareth”
INDEX 00 54:11:73
INDEX 01 54:13:55
r


Spread the Download

Leave a Reply

Your email address will not be published. Required fields are marked *

Enter the text from the image below
 

This site uses Akismet to reduce spam. Learn how your comment data is processed.