Nazareth – Play ‘n’ The Game (Remastered Japanese Edition)




Artist: Nazareth
Year: 1976/2006
Genre: Rock
Notes: Discogs
Add. Notes: Remastered Japanese Edition
Cover incl.: Yes
Encoder: FLAC
Bitrate: ~900 kBit/s (44.1 kHz/16 Bit/s)
Log & Cue incl.: Yes
Size: 378 MB
Password: “slam” (without ” “)


All Downloads/Hosters are compatible

Download 1
KatFile.com
Rapidgator.net
Turbobit.net
FileFactory.com
Download 2
KatFile.com
Rapidgator.net
Turbobit.net
FileFactory.com

Tracklist:

1 - Somebody To Roll - 3:54
2 - Down Home Girl - 5:04
3 - Flying - 4:20
4 - Waiting For The Man - 4:54
5 - Born To Love - 3:58
6 - I Want To Do Everything For 
You - 4:19
7 - I Don't Want To Go On Without 
You - 3:46
8 - Wild Honey - 3:04
9 - L.A. Girls - 3:56
Bonus Tracks
10 - Good Love - 3:53
11 - I Don't Want To Go On Without 
You -Alternate Edit 
Version- - 3:25
12 - Waiting For The Man -Alternate 
Edit Version- - 6:13
13 - Somebody To Roll -Edit 
Version- - 3:32
14 - Born To Love -Edit Version- - 
3:37

EAC-Log, CUE-Sheed & NFO:

Click to open spoiler
Exact Audio Copy V1.0 beta 6 from 9. April 2015

EAC extraction logfile from 22. April 2015, 20:35

Nazareth / Play ‘n’ The Game (AIRAC-1207)

Used drive : PLEXTOR DVDR PX-891SA Adapter: 1 ID: 0

Read mode : Secure
Utilize accurate stream : Yes
Defeat audio cache : Yes
Make use of C2 pointers : No

Read offset correction : 6
Overread into Lead-In and Lead-Out : No
Fill up missing offset samples with silence : Yes
Delete leading and trailing silent blocks : No
Null samples used in CRC calculations : Yes
Used interface : Native Win32 interface for Win NT & 2000

Used output format : User Defined Encoder
Selected bitrate : 1024 kBit/s
Quality : High
Add ID3 tag : No
Command line compressor : C:\Program Files\Exact Audio Copy\Flac\flac.exe
Additional command line options : -V -8 -T “Genre=%genre%” -T “Artist=%artist%” -T “Title=%title%” -T “Album=%albumtitle%” -T “Date=%year%” -T “Tracknumber=%tracknr%” -T “Comment=%comment%” %source%

TOC of the extracted CD

Track | Start | Length | Start sector | End sector
———————————————————
1 | 0:00.00 | 3:54.56 | 0 | 17605
2 | 3:54.56 | 5:03.19 | 17606 | 40349
3 | 8:58.00 | 4:20.61 | 40350 | 59910
4 | 13:18.61 | 4:53.45 | 59911 | 81930
5 | 18:12.31 | 3:58.01 | 81931 | 99781
6 | 22:10.32 | 4:18.65 | 99782 | 119196
7 | 26:29.22 | 3:46.45 | 119197 | 136191
8 | 30:15.67 | 3:03.18 | 136192 | 149934
9 | 33:19.10 | 3:56.63 | 149935 | 167697
10 | 37:15.73 | 3:52.33 | 167698 | 185130
11 | 41:08.31 | 3:24.62 | 185131 | 200492
12 | 44:33.18 | 6:13.40 | 200493 | 228507
13 | 50:46.58 | 3:31.60 | 228508 | 244392
14 | 54:18.43 | 3:36.33 | 244393 | 260625

Range status and errors

Selected range

Filename H:\dafnaplus\Nazareth\1976 Play ‘n’ The Game\Nazareth – Play ‘n’ The Game (AIRAC-1207).wav

Peak level 96.6 %
Extraction speed 8.2 X
Range quality 99.9 %
Test CRC C3E96187
Copy CRC C3E96187
Copy OK

No errors occurred

AccurateRip summary

Track 1 accurately ripped (confidence 2) [DB5BA2D2] (AR v1)
Track 2 accurately ripped (confidence 2) [6FACBF08] (AR v1)
Track 3 accurately ripped (confidence 2) [352F5B02] (AR v1)
Track 4 accurately ripped (confidence 2) [2E2E1C25] (AR v1)
Track 5 accurately ripped (confidence 2) [58951C1F] (AR v1)
Track 6 accurately ripped (confidence 2) [3A0A10FC] (AR v1)
Track 7 accurately ripped (confidence 2) [FA6C5646] (AR v1)
Track 8 accurately ripped (confidence 2) [6792E02E] (AR v1)
Track 9 accurately ripped (confidence 2) [D1A86F00] (AR v1)
Track 10 accurately ripped (confidence 2) [B4A9DF21] (AR v1)
Track 11 accurately ripped (confidence 2) [A0E08FA1] (AR v1)
Track 12 accurately ripped (confidence 2) [E67BD60C] (AR v1)
Track 13 accurately ripped (confidence 2) [C08E85D0] (AR v1)
Track 14 accurately ripped (confidence 2) [9F20C010] (AR v1)

All tracks accurately ripped

End of status report

—- CUETools DB Plugin V2.1.6

[CTDB TOCID: d8gn6fMGKmkPs_q81Nt4C_7XtR0-] found
Submit result: d8gn6fMGKmkPs_q81Nt4C_7XtR0- has been confirmed
Track | CTDB Status
1 | (1/1) Accurately ripped
2 | (1/1) Accurately ripped
3 | (1/1) Accurately ripped
4 | (1/1) Accurately ripped
5 | (1/1) Accurately ripped
6 | (1/1) Accurately ripped
7 | (1/1) Accurately ripped
8 | (1/1) Accurately ripped
9 | (1/1) Accurately ripped
10 | (1/1) Accurately ripped
11 | (1/1) Accurately ripped
12 | (1/1) Accurately ripped
13 | (1/1) Accurately ripped
14 | (1/1) Accurately ripped

==== Log checksum 67062F37B4893196BA69AF6C121459BF93609116C127048D29C262F387A78931 ====

REM GENRE Rock
REM DATE 2006
REM DISCID A20D930E
REM COMMENT “ExactAudioCopy v1.0b6”
PERFORMER “Nazareth ”
TITLE “Play ‘n’ The Game (AIRAC-1207)”
FILE “Nazareth – Play ‘n’ The Game (AIRAC-1207).flac” WAVE
TRACK 01 AUDIO
TITLE “Somebody To Roll”
PERFORMER “Nazareth ”
ISRC GBCBR0402555
INDEX 01 00:00:00
TRACK 02 AUDIO
TITLE “Down Home Girl”
PERFORMER “Nazareth ”
ISRC GBCBR0402556
INDEX 01 03:54:56
TRACK 03 AUDIO
TITLE “Flying”
PERFORMER “Nazareth ”
ISRC GBCBR0402557
INDEX 01 08:58:00
TRACK 04 AUDIO
TITLE “Waiting For The Man”
PERFORMER “Nazareth ”
ISRC GBCBR0402558
INDEX 01 13:18:61
TRACK 05 AUDIO
TITLE “Born To Love”
PERFORMER “Nazareth ”
ISRC GBCBR0402559
INDEX 01 18:12:31
TRACK 06 AUDIO
TITLE “I Want To Do Everything For You”
PERFORMER “Nazareth ”
ISRC GBCBR0402560
INDEX 01 22:10:32
TRACK 07 AUDIO
TITLE “I Don’t Want To Go On Without You”
PERFORMER “Nazareth ”
ISRC GBCBR0402561
INDEX 01 26:29:22
TRACK 08 AUDIO
TITLE “Wild Honey”
PERFORMER “Nazareth ”
ISRC GBCBR0402562
INDEX 01 30:15:67
TRACK 09 AUDIO
TITLE “L.A. Girls”
PERFORMER “Nazareth ”
ISRC GBCBR0402563
INDEX 01 33:19:10
TRACK 10 AUDIO
TITLE “Good Love”
PERFORMER “Nazareth ”
ISRC GBCBR0402564
INDEX 00 37:10:70
INDEX 01 37:15:73
TRACK 11 AUDIO
TITLE “I Don’t Want To Go On Without You -Alternate Edit Version-”
PERFORMER “Nazareth ”
ISRC GBCBR0402565
INDEX 01 41:08:31
TRACK 12 AUDIO
TITLE “Waiting For The Man (Alternate Edit Version)”
PERFORMER “Nazareth ”
ISRC GBCBR0402566
INDEX 01 44:33:18
TRACK 13 AUDIO
TITLE “Somebody To Roll (Edit Version)”
PERFORMER “Nazareth ”
ISRC GBCBR0402567
INDEX 01 50:46:58
TRACK 14 AUDIO
TITLE “Born To Love (Edit Version)”
PERFORMER “Nazareth ”
ISRC GBCBR0402568
INDEX 01 54:18:43


Leave a Reply

Your email address will not be published. Required fields are marked *

Enter the text from the image below
 

This site uses Akismet to reduce spam. Learn how your comment data is processed.