Nazareth – Play ‘n’ The Game (Reissue)




[Total: 0    Average: 0/5]

Artist: Nazareth
Year: 1976/1990
Genre: Rock
Notes: Discogs
Add. Notes: Reissue
Cover incl.: Yes
Encoder: FLAC
Bitrate: ~800 kBit/s (44.1 kHz/16 Bit/s)
Log & Cue incl.: Yes
Size: 291 MB
Password: “slam” (without ” “)


All Downloads/Hosters are compatible

Download 1
Share-online.biz
KatFile.com
Rapidgator.net
Mexa.sh
Download 2
Share-online.biz
KatFile.com
Rapidgator.net
Mexa.sh

Tracklist:

1 - Somebody To Roll - 3:56
2 - Down Home Girl - 5:06
3 - Flying - 4:24
4 - Waiting For The Man - 4:56
5 - Born To Love - 3:59
6 - I Want To Do Everything For 
You - 4:25
7 - I Don't Want To Go On Without 
You - 3:49
8 - Wild Honey - 3:05
9 - L.A. Girls - 3:47

EAC-Log, CUE-Sheed & NFO:

Click to open spoiler
Exact Audio Copy V1.0 beta 3 from 29. August 2011

EAC extraction logfile from 18. August 2014, 0:34

Nazareth / Play ‘n’ the Game (CLACD 219)

Used drive : Optiarc DVD RW AD-7240S Adapter: 1 ID: 1

Read mode : Secure
Utilize accurate stream : Yes
Defeat audio cache : Yes
Make use of C2 pointers : No

Read offset correction : 48
Overread into Lead-In and Lead-Out : No
Fill up missing offset samples with silence : Yes
Delete leading and trailing silent blocks : No
Null samples used in CRC calculations : Yes
Used interface : Native Win32 interface for Win NT & 2000

Used output format : User Defined Encoder
Selected bitrate : 128 kBit/s
Quality : High
Add ID3 tag : No
Command line compressor : C:\Program Files (x86)\Exact Audio Copy\Flac\flac.exe
Additional command line options : -V -8 -T “Date=%year%” -T “Genre=%genre%” %source%

TOC of the extracted CD

Track | Start | Length | Start sector | End sector
———————————————————
1 | 0:00.33 | 3:56.62 | 33 | 17794
2 | 3:57.20 | 5:06.40 | 17795 | 40784
3 | 9:03.60 | 4:24.33 | 40785 | 60617
4 | 13:28.18 | 4:56.62 | 60618 | 82879
5 | 18:25.05 | 3:59.45 | 82880 | 100849
6 | 22:24.50 | 4:25.30 | 100850 | 120754
7 | 26:50.05 | 3:49.63 | 120755 | 137992
8 | 30:39.68 | 3:05.05 | 137993 | 151872
9 | 33:44.73 | 3:47.60 | 151873 | 168957

Range status and errors

Selected range

Filename I:\Nazareth discography\Studio\1976. Nazareth – Play’n’The Game\1976. Nazareth – Play’n’The Game (Castle CLACD219,England)\Nazareth – Play ‘n’ the Game (CLACD 219).wav

Peak level 100.0 %
Extraction speed 3.5 X
Range quality 100.0 %
Test CRC B9EA8776
Copy CRC B9EA8776
Copy OK

No errors occurred

AccurateRip summary

Track 1 accurately ripped (confidence 4) [4695A2F2] (AR v2)
Track 2 accurately ripped (confidence 4) [3FEF7335] (AR v2)
Track 3 accurately ripped (confidence 4) [910CE86F] (AR v2)
Track 4 accurately ripped (confidence 4) [3894442C] (AR v2)
Track 5 accurately ripped (confidence 4) [37DDD754] (AR v2)
Track 6 accurately ripped (confidence 4) [CA8C23F5] (AR v2)
Track 7 accurately ripped (confidence 4) [7324546C] (AR v2)
Track 8 accurately ripped (confidence 4) [DB0B5AC1] (AR v2)
Track 9 accurately ripped (confidence 4) [FF7879A6] (AR v2)

All tracks accurately ripped

End of status report

—- CUETools DB Plugin V2.1.4

[CTDB TOCID: WOVjV5OHT7qtdOYX84e2W9DXLsY-] found
Submit result: WOVjV5OHT7qtdOYX84e2W9DXLsY- has been confirmed
Track | CTDB Status
1 | (2/2) Accurately ripped
2 | (2/2) Accurately ripped
3 | (2/2) Accurately ripped
4 | (2/2) Accurately ripped
5 | (2/2) Accurately ripped
6 | (2/2) Accurately ripped
7 | (2/2) Accurately ripped
8 | (2/2) Accurately ripped
9 | (2/2) Accurately ripped

==== Log checksum 5A062AC4B22F6A2E4E488173A3D3112A2EA91168E9F4D1042BA7525ECE1C568D ====

REM GENRE “Hard Rock”
REM DATE 1976
REM DISCID 6008CC09
REM COMMENT “ExactAudioCopy v1.0b3”
CATALOG 0000000000000
PERFORMER “Nazareth”
TITLE “Play ‘n’ the Game (CLACD 219)”
FILE “Nazareth – Play ‘n’ the Game (CLACD 219).flac” WAVE
TRACK 01 AUDIO
TITLE “Somebody To Roll”
PERFORMER “Nazareth”
INDEX 00 00:00:00
INDEX 01 00:00:33
TRACK 02 AUDIO
TITLE “Down Home Girl”
PERFORMER “Nazareth”
INDEX 00 03:54:43
INDEX 01 03:57:20
TRACK 03 AUDIO
TITLE “Flying”
PERFORMER “Nazareth”
INDEX 00 09:02:08
INDEX 01 09:03:60
TRACK 04 AUDIO
TITLE “Waiting For the Man”
PERFORMER “Nazareth”
INDEX 00 13:23:25
INDEX 01 13:28:18
TRACK 05 AUDIO
TITLE “Born To Love”
PERFORMER “Nazareth”
INDEX 00 18:22:53
INDEX 01 18:25:05
TRACK 06 AUDIO
TITLE “I Want To Do Everything For You”
PERFORMER “Nazareth”
INDEX 00 22:22:28
INDEX 01 22:24:50
TRACK 07 AUDIO
TITLE “I Don’t Want To Go On Without You”
PERFORMER “Nazareth”
INDEX 00 26:44:50
INDEX 01 26:50:05
TRACK 08 AUDIO
TITLE “Wild Honey”
PERFORMER “Nazareth”
INDEX 00 30:37:00
INDEX 01 30:39:68
TRACK 09 AUDIO
TITLE “L.A. Girls”
PERFORMER “Nazareth”
INDEX 00 33:42:45
INDEX 01 33:44:73


Spread the Download

Leave a Reply

Your email address will not be published. Required fields are marked *

Enter the text from the image below
 

This site uses Akismet to reduce spam. Learn how your comment data is processed.