Nazareth – No Mean City (Remastered)




[Total: 0    Average: 0/5]

Artist: Nazareth
Year: 1978/2002
Genre: Rock
Notes: Discogs
Add. Notes: Remastered
Cover incl.: Yes
Encoder: FLAC
Bitrate: ~1000 kBit/s (44.1 kHz/16 Bit/s)
Log & Cue incl.: Yes
Size: 585,86 MB
Password: “slam” (without ” “)


All Downloads/Hosters are compatible

Download 1
Share-online.biz
KatFile.com
Rapidgator.net
Download 2
Share-online.biz
KatFile.com
Rapidgator.net

Tracklist:

1. Just To Get Into It 
2. May The Sunshine 
3. Simple Solution (Parts 1 & 2) 
4. Star 
5. Claim To Fame 
6. Whatever You Want Babe 
7. What's In It For Me 
8. No Mean City (Parts 1 & 2) 
Bonus Tracks
9. May The Sunshine (Single Edit) 
10. Whatever You Want Babe (Single Edit) 
11. Star (US Version) 
12. No Mean City (Alternate Edit) 
13. Simple Solution (Edit)

EAC-Log, CUE-Sheed & NFO:

Click to open spoiler
Exact Audio Copy V1.1 from 23. June 2015

Отчёт EAC об извлечении, выполненном 17. августа 2016, 19:19

Nazareth / No Mean City

Дисковод: TSSTcorpBDDVDW SE-506BB Adapter: 1 ID: 1

Режим чтения : Достоверность
Использование точного потока : Да
Отключение кэша аудио : Да
Использование указателей C2 : Нет

Коррекция смещения при чтении : 6
Способность читать области Lead-in и Lead-out : Нет
Заполнение пропущенных сэмплов тишиной : Да
Удаление блоков с тишиной в начале и конце : Нет
При вычислениях CRC использовались нулевые сэмплы : Да
Интерфейс : Встроенный Win32-интерфейс для Win NT/2000

Выходной формат : Внутренние WAV-операции
Формат сэмплов : 44.100 Гц; 16 бит; стерео

TOC извлечённого CD

Трек | Старт | Длительность | Начальный сектор | Конечный сектор
———————————————————————
1 | 0:00.00 | 4:23.50 | 0 | 19774
2 | 4:23.50 | 4:55.26 | 19775 | 41925
3 | 9:19.01 | 4:59.34 | 41926 | 64384
4 | 14:18.35 | 4:55.00 | 64385 | 86509
5 | 19:13.35 | 4:29.72 | 86510 | 106756
6 | 23:43.32 | 3:41.56 | 106757 | 123387
7 | 27:25.13 | 4:19.53 | 123388 | 142865
8 | 31:44.66 | 6:34.24 | 142866 | 172439
9 | 38:19.15 | 3:31.70 | 172440 | 188334
10 | 41:51.10 | 2:59.00 | 188335 | 201759
11 | 44:50.10 | 4:55.23 | 201760 | 223907
12 | 49:45.33 | 3:32.63 | 223908 | 239870
13 | 53:18.21 | 4:16.74 | 239871 | 259144

Характеристики диапазона извлечения и сообщения об ошибках

Выбранный диапазон

Имя файла D:\Temp\Nazareth – 1979 – No Mean City [2002 Eagle Records, EAMCD135].wav

Пиковый уровень 100.0 %
Скорость извлечения 4.5 X
Качество диапазона 100.0 %
CRC теста C08FE9B9
CRC копии C08FE9B9
Копирование… OK

Ошибок не произошло

AccurateRip: сводка

Трек 1 : извлечено точно (доверие 14) [CA4117CB] (AR v2)
Трек 2 : извлечено точно (доверие 14) [F7BF25C6] (AR v2)
Трек 3 : извлечено точно (доверие 15) [64F7D94E] (AR v2)
Трек 4 : извлечено точно (доверие 15) [BA94573C] (AR v2)
Трек 5 : извлечено точно (доверие 14) [80745637] (AR v2)
Трек 6 : извлечено точно (доверие 14) [CE4680B5] (AR v2)
Трек 7 : извлечено точно (доверие 14) [F5CAA86D] (AR v2)
Трек 8 : извлечено точно (доверие 14) [C703E807] (AR v2)
Трек 9 : извлечено точно (доверие 14) [B11CA3C5] (AR v2)
Трек 10 : извлечено точно (доверие 14) [C379B226] (AR v2)
Трек 11 : извлечено точно (доверие 14) [32CB6306] (AR v2)
Трек 12 : извлечено точно (доверие 14) [01F3B2DB] (AR v2)
Трек 13 : извлечено точно (доверие 14) [378EDE3D] (AR v2)

Все треки извлечены точно

Конец отчёта

==== Контрольная сумма отчёта E11FC60D8AC6AD678136B213CAD347D8E8C73AD84D8FD53C594D6AB8E17C0080 ====

REM GENRE “Hard Rock”
REM DATE 1979
REM DISCID A60D7F0D
REM COMMENT “ExactAudioCopy v1.1”
PERFORMER “Nazareth”
TITLE “No Mean City”
FILE “Nazareth – 1978 – No Mean City [2002 Eagle Records, EAMCD135].flac” WAVE
TRACK 01 AUDIO
TITLE “Just To Get Into It”
PERFORMER “Nazareth”
INDEX 01 00:00:00
TRACK 02 AUDIO
TITLE “May The Sunshine”
PERFORMER “Nazareth”
INDEX 00 04:21:68
INDEX 01 04:23:50
TRACK 03 AUDIO
TITLE “Simple Solution (Parts 1 & 2)”
PERFORMER “Nazareth”
INDEX 00 09:17:19
INDEX 01 09:19:01
TRACK 04 AUDIO
TITLE “Star”
PERFORMER “Nazareth”
INDEX 00 14:16:55
INDEX 01 14:18:35
TRACK 05 AUDIO
TITLE “Claim To Fame”
PERFORMER “Nazareth”
INDEX 00 19:11:52
INDEX 01 19:13:35
TRACK 06 AUDIO
TITLE “Whatever You Want Babe”
PERFORMER “Nazareth”
INDEX 00 23:41:57
INDEX 01 23:43:32
TRACK 07 AUDIO
TITLE “What’s In It For Me”
PERFORMER “Nazareth”
INDEX 00 27:23:31
INDEX 01 27:25:13
TRACK 08 AUDIO
TITLE “No Mean City (Parts 1 & 2)”
PERFORMER “Nazareth”
INDEX 00 31:43:09
INDEX 01 31:44:66
TRACK 09 AUDIO
TITLE “May The Sunshine [*][single edit]”
PERFORMER “Nazareth”
INDEX 00 38:13:45
INDEX 01 38:19:15
TRACK 10 AUDIO
TITLE “Whatever You Want Babe [*][single edit]”
PERFORMER “Nazareth”
INDEX 00 41:49:28
INDEX 01 41:51:10
TRACK 11 AUDIO
TITLE “Star [*][US version]”
PERFORMER “Nazareth”
INDEX 00 44:48:28
INDEX 01 44:50:10
TRACK 12 AUDIO
TITLE “No Mean City [*][alternate edit]”
PERFORMER “Nazareth”
INDEX 00 49:43:51
INDEX 01 49:45:33
TRACK 13 AUDIO
TITLE “Simple Solution [*][edit]”
PERFORMER “Nazareth”
INDEX 00 53:16:39
INDEX 01 53:18:21


Spread the Download

Leave a Reply

Your email address will not be published. Required fields are marked *

Enter the text from the image below
 

This site uses Akismet to reduce spam. Learn how your comment data is processed.