Nazareth – No Mean City (Reissue)




[Total: 0    Average: 0/5]

Artist: Nazareth
Year: 1978/1990
Genre: Rock
Notes: Discogs
Add. Notes: Reissue
Cover incl.: Yes
Encoder: FLAC
Bitrate: ~900 kBit/s (44.1 kHz/16 Bit/s)
Log & Cue incl.: Yes
Size: 364 MB
Password: “slam” (without ” “)


All Downloads/Hosters are compatible

Download 1
Share-online.biz
KatFile.com
Rapidgator.net
Mexa.sh
Download 2
Share-online.biz
KatFile.com
Rapidgator.net
Mexa.sh

Tracklist:

1 - Just To Get Into It - 4:23
2 - May The Sunshine - 4:56
3 - Simple Solution (Parts 1 & 2) - 
5:00
4 - Star - 4:57
5 - Claim To Fame - 4:35
6 - Whatever You Want Babe - 3:53
7 - What's In It For Me - 4:21
8 - No Mean City (Parts 1 & 2) - 6:29

EAC-Log, CUE-Sheed & NFO:

Click to open spoiler
Exact Audio Copy V1.0 beta 3 from 29. August 2011

EAC extraction logfile from 21. February 2014, 14:40

Nazareth / No Mean City

Used drive : SONY BD RW BDX-S600U Adapter: 2 ID: 1

Read mode : Secure
Utilize accurate stream : Yes
Defeat audio cache : Yes
Make use of C2 pointers : No

Read offset correction : 48
Overread into Lead-In and Lead-Out : No
Fill up missing offset samples with silence : Yes
Delete leading and trailing silent blocks : No
Null samples used in CRC calculations : Yes
Used interface : Native Win32 interface for Win NT & 2000

Used output format : User Defined Encoder
Selected bitrate : 128 kBit/s
Quality : High
Add ID3 tag : No
Command line compressor : C:\Program Files (x86)\Exact Audio Copy\Flac\flac.exe
Additional command line options : -V -8 -T “Date=%year%” -T “Genre=%genre%” %source%

TOC of the extracted CD

Track | Start | Length | Start sector | End sector
———————————————————
1 | 0:00.33 | 4:23.45 | 33 | 19802
2 | 4:24.03 | 4:56.72 | 19803 | 42074
3 | 9:21.00 | 5:00.68 | 42075 | 64642
4 | 14:21.68 | 4:57.47 | 64643 | 86964
5 | 19:19.40 | 4:35.53 | 86965 | 107642
6 | 23:55.18 | 3:53.42 | 107643 | 125159
7 | 27:48.60 | 4:21.45 | 125160 | 144779
8 | 32:10.30 | 6:29.08 | 144780 | 173962

Range status and errors

Selected range

Filename D:\Nazareth discography\1978. Nazareth – No Mean City\1978. Nazareth – No Mean City (Castle Comm.,CLACD 213,France)\Nazareth – No Mean City.wav

Peak level 100.0 %
Extraction speed 6.2 X
Range quality 100.0 %
Test CRC B09558B9
Copy CRC B09558B9
Copy OK

No errors occurred

AccurateRip summary

Track 1 accurately ripped (confidence 9) [4EBF433C] (AR v2)
Track 2 accurately ripped (confidence 9) [5C77C09B] (AR v2)
Track 3 accurately ripped (confidence 9) [9D79FE5F] (AR v2)
Track 4 accurately ripped (confidence 9) [61CB433B] (AR v2)
Track 5 accurately ripped (confidence 9) [BB16A336] (AR v2)
Track 6 accurately ripped (confidence 9) [061598ED] (AR v2)
Track 7 accurately ripped (confidence 9) [CE729AF5] (AR v2)
Track 8 accurately ripped (confidence 9) [D085A10E] (AR v2)

All tracks accurately ripped

End of status report

—- CUETools DB Plugin V2.1.4

[CTDB TOCID: ZWaI8e2.FrCLCc1cy2nDo3BpADM-] found
Submit result: ZWaI8e2.FrCLCc1cy2nDo3BpADM- has been confirmed
Track | CTDB Status
1 | (2/2) Accurately ripped
2 | (2/2) Accurately ripped
3 | (2/2) Accurately ripped
4 | (2/2) Accurately ripped
5 | (2/2) Accurately ripped
6 | (2/2) Accurately ripped
7 | (2/2) Accurately ripped
8 | (2/2) Accurately ripped

==== Log checksum CEECA97005AD16104E56DDF2DB7DE843280921BD8B533D21D061E5AB6EC2507E ====

REM GENRE “Hard Rock”
REM DATE 1978
REM DISCID 64090F08
REM COMMENT “ExactAudioCopy v1.0b3”
CATALOG 0000000000000
PERFORMER “Nazareth”
TITLE “No Mean City”
FILE “Nazareth – No Mean City.flac” WAVE
TRACK 01 AUDIO
TITLE “Just To Get Into It”
PERFORMER “Nazareth”
INDEX 00 00:00:00
INDEX 01 00:00:33
TRACK 02 AUDIO
TITLE “May The Sunshine”
PERFORMER “Nazareth”
INDEX 00 04:21:48
INDEX 01 04:24:03
TRACK 03 AUDIO
TITLE “Simple Solution (Parts 1 And 2)”
PERFORMER “Nazareth”
INDEX 00 09:19:08
INDEX 01 09:21:00
TRACK 04 AUDIO
TITLE “Star”
PERFORMER “Nazareth”
INDEX 00 14:20:25
INDEX 01 14:21:68
TRACK 05 AUDIO
TITLE “Claim To Fame”
PERFORMER “Nazareth”
INDEX 00 19:16:65
INDEX 01 19:19:40
TRACK 06 AUDIO
TITLE “Whatever You Want Bebe”
PERFORMER “Nazareth”
INDEX 00 23:51:38
INDEX 01 23:55:18
TRACK 07 AUDIO
TITLE “What’s In It For Me”
PERFORMER “Nazareth”
INDEX 00 27:47:53
INDEX 01 27:48:60
TRACK 08 AUDIO
TITLE “No Mean City (Parts 1 And 2)”
PERFORMER “Nazareth”
INDEX 01 32:10:30


Spread the Download

Leave a Reply

Your email address will not be published. Required fields are marked *

Enter the text from the image below
 

This site uses Akismet to reduce spam. Learn how your comment data is processed.