Nazareth – No Jive




Artist: Nazareth
Year: 1991
Genre: Metal
Notes: Discogs
Add. Notes:
Cover incl.: Yes
Encoder: FLAC
Bitrate: ~900 kBit/s (44.1 kHz/16 Bit/s)
Log & Cue incl.: Yes
Size: 437 MB
Password: “slam” (without ” “)


All Downloads/Hosters are compatible

Download 1
KatFile.com
Turbobit.net
FileFactory.com
Rapidgator.net
Download 2
KatFile.com
Turbobit.net
FileFactory.com
Rapidgator.net

Tracklist:

1 - Hire And Fire - 5:10
2 - Do You Wanna Play House - 5:02
3 - Right Between The Eyes - 3:06
4 - Every Time It Rains - 4:15
5 - Keeping Our Love Alive - 3:18
6 - Thinkin' Man's Nightmare - 4:01
7 - Cover Your Heart - 4:33
8 - Lap Of Luxury - 3:55
9a - The Rowan Tree - 
9b - Tell Me That You Love Me - 4:39
10 - Cry Wolf - 4:28
11 - This Flight Tonight - 3:37

EAC-Log, CUE-Sheed & NFO:

Click to open spoiler
Exact Audio Copy V1.0 beta 3 from 29. August 2011

EAC extraction logfile from 14. May 2014, 0:07

Nazareth / No Jive

Used drive : SONY BD RW BDX-S600U Adapter: 2 ID: 1

Read mode : Secure
Utilize accurate stream : Yes
Defeat audio cache : Yes
Make use of C2 pointers : No

Read offset correction : 48
Overread into Lead-In and Lead-Out : No
Fill up missing offset samples with silence : Yes
Delete leading and trailing silent blocks : No
Null samples used in CRC calculations : Yes
Used interface : Native Win32 interface for Win NT & 2000

Used output format : User Defined Encoder
Selected bitrate : 128 kBit/s
Quality : High
Add ID3 tag : No
Command line compressor : C:\Program Files (x86)\Exact Audio Copy\Flac\flac.exe
Additional command line options : -V -8 -T “Date=%year%” -T “Genre=%genre%” %source%

TOC of the extracted CD

Track | Start | Length | Start sector | End sector
———————————————————
1 | 0:00.57 | 5:10.55 | 57 | 23361
2 | 5:11.37 | 5:01.53 | 23362 | 45989
3 | 10:13.15 | 3:06.12 | 45990 | 59951
4 | 13:19.27 | 4:14.35 | 59952 | 79036
5 | 17:33.62 | 3:18.35 | 79037 | 93921
6 | 20:52.22 | 4:01.10 | 93922 | 112006
7 | 24:53.32 | 4:32.23 | 112007 | 132429
8 | 29:25.55 | 3:55.17 | 132430 | 150071
9 | 33:20.72 | 4:39.35 | 150072 | 171031
10 | 38:00.32 | 4:28.03 | 171032 | 191134
11 | 42:28.35 | 3:36.72 | 191135 | 207406

Range status and errors

Selected range

Filename D:\Nazareth discography\Studio\1991. Nazareth – No Jive\Новая папка\Nazareth – No Jive.wav

Peak level 97.4 %
Extraction speed 6.5 X
Range quality 100.0 %
Test CRC 586625CC
Copy CRC 586625CC
Copy OK

No errors occurred

AccurateRip summary

Track 1 accurately ripped (confidence 8) [7CBC6CC9] (AR v2)
Track 2 accurately ripped (confidence 8) [9F678572] (AR v2)
Track 3 accurately ripped (confidence 8) [22817BBC] (AR v2)
Track 4 accurately ripped (confidence 8) [715814EF] (AR v2)
Track 5 accurately ripped (confidence 8) [DFFB6693] (AR v2)
Track 6 accurately ripped (confidence 8) [39140F79] (AR v2)
Track 7 accurately ripped (confidence 8) [BE996B7E] (AR v2)
Track 8 accurately ripped (confidence 8) [D63A75D5] (AR v2)
Track 9 accurately ripped (confidence 8) [4A47D8A0] (AR v2)
Track 10 accurately ripped (confidence 8) [C2CE9F55] (AR v2)
Track 11 accurately ripped (confidence 7) [6CBBE4A8] (AR v2)

All tracks accurately ripped

End of status report

—- CUETools DB Plugin V2.1.4

[CTDB TOCID: ffgPseBSutzl1d9x3k5JlvJ1j7c-] found
Submit result: ffgPseBSutzl1d9x3k5JlvJ1j7c- has been confirmed
Track | CTDB Status
1 | (1/1) Accurately ripped
2 | (1/1) Accurately ripped
3 | (1/1) Accurately ripped
4 | (1/1) Accurately ripped
5 | (1/1) Accurately ripped
6 | (1/1) Accurately ripped
7 | (1/1) Accurately ripped
8 | (1/1) Accurately ripped
9 | (1/1) Accurately ripped
10 | (1/1) Accurately ripped
11 | (1/1) Accurately ripped

==== Log checksum 7FDDB09C520F275D165D8EDAA9BDC34E01C381287268560FE294B7CBFAAFD6BB ====

REM GENRE “Hard Rock”
REM DATE 1992
REM DISCID 7B0ACD0B
REM COMMENT “ExactAudioCopy v1.0b3”
CATALOG 0000000000000
PERFORMER “Nazareth”
TITLE “No Jive”
FILE “Nazareth – No Jive.flac” WAVE
TRACK 01 AUDIO
TITLE “Hire and Fire”
PERFORMER “Nazareth”
ISRC 000000000000
INDEX 00 00:00:00
INDEX 01 00:00:57
TRACK 02 AUDIO
TITLE “Do You Wanna Play House?”
PERFORMER “Nazareth”
INDEX 00 05:11:35
INDEX 01 05:11:37
TRACK 03 AUDIO
TITLE “Right Between the Eyes”
PERFORMER “Nazareth”
INDEX 00 10:13:12
INDEX 01 10:13:15
TRACK 04 AUDIO
TITLE “Every Time It Rains”
PERFORMER “Nazareth”
ISRC 000000000000
INDEX 00 13:18:27
INDEX 01 13:19:27
TRACK 05 AUDIO
TITLE “Keeping Our Love Alive”
PERFORMER “Nazareth”
INDEX 00 17:33:60
INDEX 01 17:33:62
TRACK 06 AUDIO
TITLE “Thinkin’ Man’s Nightmare”
PERFORMER “Nazareth”
INDEX 00 20:52:20
INDEX 01 20:52:22
TRACK 07 AUDIO
TITLE “Cover Your Heart”
PERFORMER “Nazareth”
INDEX 00 24:53:30
INDEX 01 24:53:32
TRACK 08 AUDIO
TITLE “Lap of Luxury”
PERFORMER “Nazareth”
INDEX 00 29:25:52
INDEX 01 29:25:55
TRACK 09 AUDIO
TITLE “The Rowan Tree/Tell Me That You Love Me”
PERFORMER “Nazareth”
INDEX 00 33:20:70
INDEX 01 33:20:72
TRACK 10 AUDIO
TITLE “Cry Wolf”
PERFORMER “Nazareth”
INDEX 00 38:00:30
INDEX 01 38:00:32
TRACK 11 AUDIO
TITLE “This Flight Tonight”
PERFORMER “Nazareth”
INDEX 00 42:28:32
INDEX 01 42:28:35


Leave a Reply

Your email address will not be published. Required fields are marked *

This site uses Akismet to reduce spam. Learn how your comment data is processed.