Nazareth – No Jive (Remastered)




[Total: 0    Average: 0/5]

Artist: Nazareth
Year: 1991/2002
Genre: Metal
Notes: Discogs
Add. Notes: Remastered
Cover incl.: Yes
Encoder: FLAC
Bitrate: ~900 kBit/s (44.1 kHz/16 Bit/s)
Log & Cue incl.: Yes
Size: 551,42 MB
Password: “slam” (without ” “)


All Downloads/Hosters are compatible

Download 1
Share-online.biz
KatFile.com
Rapidgator.net
NitroFlare.com
Download 2
Share-online.biz
KatFile.com
Rapidgator.net
NitroFlare.com

Tracklist:

1. Hire And Fire 
2. Do You Wanna Play House 
3. Right Between The Eyes 
4. Every Time It Rains 
5. Keeping Our Love Alive 
6. Thinkin' Man's Nightmare 
7. Cover Your Heart 
8. Lap Of Luxury 
9a. The Rowan Tree 
9b. Tell Me That You Love Me 
10. Cry Wolf 
Bonus Tracks:
11. This Flight Tonight (1991 Version) 
12. Hire And Fire (Edited Version) 
Medley:
13a. The Rowan Tree (Edited Version) 
13b. Tell Me That You Love Me (Edited Version)

EAC-Log, CUE-Sheed & NFO:

Click to open spoiler
REM GENRE “Hard Rock”
REM DATE 1991
REM DISCID B30D270D
REM COMMENT “ExactAudioCopy v1.1”
PERFORMER “Nazareth”
TITLE “No Jive”
FILE “Nazareth – 1991 – No Jive [2002 Eagle Records, EAMCD148].flac” WAVE
TRACK 01 AUDIO
TITLE “Hire And Fire”
PERFORMER “Nazareth”
INDEX 01 00:00:00
TRACK 02 AUDIO
TITLE “Do You Wanna Play House”
PERFORMER “Nazareth”
INDEX 00 05:11:37Exact Audio Copy V1.1 from 23. June 2015

Отчёт EAC об извлечении, выполненном 18. августа 2016, 17:54

Nazareth / No Jive

Дисковод: TSSTcorpBDDVDW SE-506BB Adapter: 1 ID: 1

Режим чтения : Достоверность
Использование точного потока : Да
Отключение кэша аудио : Да
Использование указателей C2 : Нет

Коррекция смещения при чтении : 6
Способность читать области Lead-in и Lead-out : Нет
Заполнение пропущенных сэмплов тишиной : Да
Удаление блоков с тишиной в начале и конце : Нет
При вычислениях CRC использовались нулевые сэмплы : Да
Интерфейс : Встроенный Win32-интерфейс для Win NT/2000

Выходной формат : Внутренние WAV-операции
Формат сэмплов : 44.100 Гц; 16 бит; стерео

TOC извлечённого CD

Трек | Старт | Длительность | Начальный сектор | Конечный сектор
———————————————————————
1 | 0:00.00 | 5:11.58 | 0 | 23382
2 | 5:11.58 | 5:01.50 | 23383 | 46007
3 | 10:13.33 | 3:06.13 | 46008 | 59970
4 | 13:19.46 | 4:12.22 | 59971 | 78892
5 | 17:31.68 | 3:11.50 | 78893 | 93267
6 | 20:43.43 | 4:01.10 | 93268 | 111352
7 | 24:44.53 | 4:28.65 | 111353 | 131517
8 | 29:13.43 | 3:55.12 | 131518 | 149154
9 | 33:08.55 | 4:36.64 | 149155 | 169918
10 | 37:45.44 | 4:27.55 | 169919 | 189998
11 | 42:13.24 | 3:37.35 | 189999 | 206308
12 | 45:50.59 | 4:02.04 | 206309 | 224462
13 | 49:52.63 | 6:14.60 | 224463 | 252572

Характеристики диапазона извлечения и сообщения об ошибках

Выбранный диапазон

Имя файла D:\Temp\Nazareth – 1991 – No Jive [2002 Eagle Records, EAMCD148].wav

Пиковый уровень 90.2 %
Скорость извлечения 4.5 X
Качество диапазона 100.0 %
CRC теста F1484DB1
CRC копии F1484DB1
Копирование… OK

Ошибок не произошло

AccurateRip: сводка

Трек 1 : извлечено точно (доверие 2) [E6DFCB72] (AR v2)
Трек 2 : извлечено точно (доверие 5) [21DBD7C2] (AR v1)
Трек 3 : извлечено точно (доверие 5) [D6437108] (AR v1)
Трек 4 : извлечено точно (доверие 5) [9D8DC965] (AR v1)
Трек 5 : извлечено точно (доверие 5) [143C34CC] (AR v1)
Трек 6 : извлечено точно (доверие 5) [926B5898] (AR v1)
Трек 7 : извлечено точно (доверие 5) [91B48385] (AR v1)
Трек 8 : извлечено точно (доверие 5) [0CF620E7] (AR v1)
Трек 9 : извлечено точно (доверие 5) [32EA3FAE] (AR v1)
Трек 10 : извлечено точно (доверие 5) [0EEFDDDF] (AR v1)
Трек 11 : извлечено точно (доверие 5) [40082583] (AR v1)
Трек 12 : извлечено точно (доверие 5) [D0B316FB] (AR v1)
Трек 13 : извлечено точно (доверие 5) [8AFBFAC4] (AR v1)

Все треки извлечены точно

Конец отчёта

==== Контрольная сумма отчёта C27B6EA1DFD86058266EA96EBA6AE5070CAA50424E930836E45BC5D03050A951 ====

INDEX 01 05:11:58
TRACK 03 AUDIO
TITLE “Right Between The Eyes”
PERFORMER “Nazareth”
INDEX 00 10:10:17
INDEX 01 10:13:33
TRACK 04 AUDIO
TITLE “Every Time It Rains”
PERFORMER “Nazareth”
INDEX 00 13:18:71
INDEX 01 13:19:46
TRACK 05 AUDIO
TITLE “Keeping Our Love Alive”
PERFORMER “Nazareth”
INDEX 00 17:30:40
INDEX 01 17:31:68
TRACK 06 AUDIO
TITLE “Thinkin’ Man’s Nightmare”
PERFORMER “Nazareth”
INDEX 00 20:43:36
INDEX 01 20:43:43
TRACK 07 AUDIO
TITLE “Cover Your Heart”
PERFORMER “Nazareth”
INDEX 00 24:44:09
INDEX 01 24:44:53
TRACK 08 AUDIO
TITLE “Lap Of Luxury”
PERFORMER “Nazareth”
INDEX 00 29:11:45
INDEX 01 29:13:43
TRACK 09 AUDIO
TITLE “Medley: The Rowan Tree / Teel Me That You Love Me”
PERFORMER “Nazareth”
INDEX 00 33:07:41
INDEX 01 33:08:55
INDEX 02 33:56:13
TRACK 10 AUDIO
TITLE “Cry Wolf”
PERFORMER “Nazareth”
INDEX 00 37:45:10
INDEX 01 37:45:44
TRACK 11 AUDIO
TITLE “This Flight Tonight [*][1991 version]”
PERFORMER “Nazareth”
INDEX 00 42:03:41
INDEX 01 42:13:24
TRACK 12 AUDIO
TITLE “Hire And Fire [*][edited version]”
PERFORMER “Nazareth”
INDEX 00 45:49:09
INDEX 01 45:50:59
TRACK 13 AUDIO
TITLE “Medley: The Rowan Tree / Tell Me That You Love Me [*][edited version]”
PERFORMER “Nazareth”
INDEX 00 49:51:55
INDEX 01 49:52:63


Spread the Download

Leave a Reply

Your email address will not be published. Required fields are marked *

Enter the text from the image below
 

This site uses Akismet to reduce spam. Learn how your comment data is processed.