Nazareth – Nazareth




[Total: 0    Average: 0/5]

Artist: Nazareth
Year: 1971
Genre: Rock
Notes: Discogs
Add. Notes:
Cover incl.: Yes
Encoder: FLAC
Bitrate: ~800 kBit/s (44.1 kHz/16 Bit/s)
Log & Cue incl.: Yes
Size: 303 MB
Password: “slam” (without ” “)


All Downloads/Hosters are compatible

Download 1
KatFile.com
Turbobit.net
FileFactory.com
Rapidgator.net
Download 2
KatFile.com
Turbobit.net
FileFactory.com
Rapidgator.net

Tracklist:

1 - Witchdoctor Woman - 4:06
2 - Dear John - 3:46
3 - Empty Arms, Empty Heart - 3:13
4 - I Had A Dream - 3:23
5 - Red Light Lady (Parts 1 & 2) - 
6:00
6 - Fat Man - 3:25
7 - Country Girl - 4:04
8 - Morning Dew - 7:07
9 - King Is Dead - 4:45

EAC-Log, CUE-Sheed & NFO:

Click to open spoiler
Exact Audio Copy V1.0 beta 3 from 29. August 2011

EAC extraction logfile from 27. May 2014, 0:20

NAZARETH / Nazareth

Used drive : SONY BD RW BDX-S600U Adapter: 2 ID: 1

Read mode : Secure
Utilize accurate stream : Yes
Defeat audio cache : Yes
Make use of C2 pointers : No

Read offset correction : 48
Overread into Lead-In and Lead-Out : No
Fill up missing offset samples with silence : Yes
Delete leading and trailing silent blocks : No
Null samples used in CRC calculations : Yes
Used interface : Native Win32 interface for Win NT & 2000

Used output format : User Defined Encoder
Selected bitrate : 128 kBit/s
Quality : High
Add ID3 tag : No
Command line compressor : C:\Program Files (x86)\Exact Audio Copy\Flac\flac.exe
Additional command line options : -V -8 -T “Date=%year%” -T “Genre=%genre%” %source%

TOC of the extracted CD

Track | Start | Length | Start sector | End sector
———————————————————
1 | 0:00.00 | 4:09.03 | 0 | 18677
2 | 4:09.03 | 3:47.32 | 18678 | 35734
3 | 7:56.35 | 3:14.73 | 35735 | 50357
4 | 11:11.33 | 3:24.47 | 50358 | 65704
5 | 14:36.05 | 6:02.55 | 65705 | 92909
6 | 20:38.60 | 3:25.15 | 92910 | 108299
7 | 24:04.00 | 4:06.03 | 108300 | 126752
8 | 28:10.03 | 7:09.22 | 126753 | 158949
9 | 35:19.25 | 4:45.20 | 158950 | 180344

Range status and errors

Selected range

Filename D:\Nazareth discography\Studio\1971. Nazareth – Nazareth\1971. Nazareth – Nazareth (A&M CD3169,USA)\NAZARETH – Nazareth.wav

Peak level 100.0 %
Extraction speed 6.2 X
Range quality 100.0 %
Test CRC D16BF8F2
Copy CRC D16BF8F2
Copy OK

No errors occurred

AccurateRip summary

Track 1 accurately ripped (confidence 2) [4BA5A40C] (AR v2)
Track 2 accurately ripped (confidence 2) [C58339C7] (AR v2)
Track 3 accurately ripped (confidence 2) [06DAFA80] (AR v2)
Track 4 accurately ripped (confidence 2) [E1CFA83C] (AR v2)
Track 5 accurately ripped (confidence 2) [7798DFA3] (AR v2)
Track 6 accurately ripped (confidence 2) [DB766CFA] (AR v2)
Track 7 accurately ripped (confidence 2) [E8E1F69F] (AR v2)
Track 8 accurately ripped (confidence 2) [CE0FFE64] (AR v2)
Track 9 accurately ripped (confidence 2) [9F2A481E] (AR v2)

All tracks accurately ripped

End of status report

—- CUETools DB Plugin V2.1.4

[CTDB TOCID: 65NzOZ6H_PDfrGfTJaqlAotb4xU-] found
Submit result: 65NzOZ6H_PDfrGfTJaqlAotb4xU- has been confirmed
Track | CTDB Status
1 | (1/1) Accurately ripped
2 | (1/1) Accurately ripped
3 | (1/1) Accurately ripped
4 | (1/1) Accurately ripped
5 | (1/1) Accurately ripped
6 | (1/1) Accurately ripped
7 | (1/1) Accurately ripped
8 | (1/1) Accurately ripped
9 | (1/1) Accurately ripped

==== Log checksum 059B6C1EACCD5B441188B09D73CA4EEAC917334E243478221F2B80B53F9036E2 ====

REM GENRE “Hard Rock”
REM DATE 1971
REM DISCID 72096409
REM COMMENT “ExactAudioCopy v1.0b3”
PERFORMER “NAZARETH”
TITLE “Nazareth”
FILE “NAZARETH – Nazareth.flac” WAVE
TRACK 01 AUDIO
TITLE “Witchdoctor Woman”
PERFORMER “NAZARETH”
INDEX 01 00:00:00
TRACK 02 AUDIO
TITLE “Dear John”
PERFORMER “NAZARETH”
INDEX 00 04:06:65
INDEX 01 04:09:03
TRACK 03 AUDIO
TITLE “Empty Arms, Empty Heart”
PERFORMER “NAZARETH”
INDEX 00 07:55:60
INDEX 01 07:56:35
TRACK 04 AUDIO
TITLE “I Had A Dream”
PERFORMER “NAZARETH”
INDEX 00 11:09:68
INDEX 01 11:11:33
TRACK 05 AUDIO
TITLE “Red Light Lady”
PERFORMER “NAZARETH”
INDEX 00 14:35:20
INDEX 01 14:36:05
TRACK 06 AUDIO
TITLE “Fat Man”
PERFORMER “NAZARETH”
INDEX 00 20:36:45
INDEX 01 20:38:60
TRACK 07 AUDIO
TITLE “Country Girl”
PERFORMER “NAZARETH”
INDEX 00 24:03:70
INDEX 01 24:04:00
TRACK 08 AUDIO
TITLE “Morning Dew”
PERFORMER “NAZARETH”
INDEX 00 28:08:38
INDEX 01 28:10:03
TRACK 09 AUDIO
TITLE “King Is Dead”
PERFORMER “NAZARETH”
INDEX 00 35:18:13
INDEX 01 35:19:25


Spread the Download

Leave a Reply

Your email address will not be published. Required fields are marked *

Enter the text from the image below
 

This site uses Akismet to reduce spam. Learn how your comment data is processed.