Nazareth – Nazareth (Remastered)




Artist: Nazareth
Year: 1971/2002
Genre: Rock
Notes: Discogs
Add. Notes: Remastered
Cover incl.: Yes
Encoder: FLAC
Bitrate: ~800 kBit/s (44.1 kHz/16 Bit/s)
Log & Cue incl.: Yes
Size: 551,96 MB
Password: “slam” (without ” “)


All Downloads/Hosters are compatible

Download 1
Turbobit.net
NitroFlare.com
KatFile.com
Rapidgator.net
Download 2
Turbobit.net
NitroFlare.com
KatFile.com
Rapidgator.net

Tracklist:

01. Witchdoctor Woman    [0:04:07.28]
02. Dear John    [0:03:46.62]
03. Empty Arms, Empty Heart    [0:03:13.34]
04. I Had A Dream    [0:03:23.50]
05. Red Light Lady    [0:05:59.02]
06. Fat Man    [0:03:25.17]
07. Country Girl    [0:04:06.14]
08. Morning Dew    [0:07:07.35]
09. The King Is Dead    [0:04:51.46]
10. Friends (B-side)    [0:03:23.09]
11. Dear John (Single Edit)    [0:02:42.43]
12. Morning Dew (Alternate Edited Version)   [0:04:50.56]
13. Friends (Alternate Edit Of B-side)    [0:03:26.04]
14. Morning Dew (Extended Single Version)    [0:08:07.23]
15. Witchdoctor Woman (Previously Unreleased Version)    [0:04:31.56]

EAC-Log, CUE-Sheed & NFO:

Click to open spoiler
Exact Audio Copy V1.1 from 23. June 2015

Отчёт EAC об извлечении, выполненном 16. августа 2016, 22:27

Nazareth / Nazareth

Дисковод: TSSTcorpBDDVDW SE-506BB Adapter: 1 ID: 1

Режим чтения : Достоверность
Использование точного потока : Да
Отключение кэша аудио : Да
Использование указателей C2 : Нет

Коррекция смещения при чтении : 6
Способность читать области Lead-in и Lead-out : Нет
Заполнение пропущенных сэмплов тишиной : Да
Удаление блоков с тишиной в начале и конце : Нет
При вычислениях CRC использовались нулевые сэмплы : Да
Интерфейс : Встроенный Win32-интерфейс для Win NT/2000

Выходной формат : Внутренние WAV-операции
Формат сэмплов : 44.100 Гц; 16 бит; стерео

TOC извлечённого CD

Трек | Старт | Длительность | Начальный сектор | Конечный сектор
———————————————————————
1 | 0:00.00 | 4:07.28 | 0 | 18552
2 | 4:07.28 | 3:46.62 | 18553 | 35564
3 | 7:54.15 | 3:13.34 | 35565 | 50073
4 | 11:07.49 | 3:23.50 | 50074 | 65348
5 | 14:31.24 | 5:59.02 | 65349 | 92275
6 | 20:30.26 | 3:25.17 | 92276 | 107667
7 | 23:55.43 | 4:06.14 | 107668 | 126131
8 | 28:01.57 | 7:07.35 | 126132 | 158191
9 | 35:09.17 | 4:51.46 | 158192 | 180062
10 | 40:00.63 | 3:23.09 | 180063 | 195296
11 | 43:23.72 | 2:42.43 | 195297 | 207489
12 | 46:06.40 | 4:50.56 | 207490 | 229295
13 | 50:57.21 | 3:26.04 | 229296 | 244749
14 | 54:23.25 | 8:07.23 | 244750 | 281297
15 | 62:30.48 | 4:31.56 | 281298 | 301678

Характеристики диапазона извлечения и сообщения об ошибках

Выбранный диапазон

Имя файла D:\Temp\Nazareth – 1971 – Nazareth [2002 Eagle Records, EAMCD145].wav

Пиковый уровень 100.0 %
Скорость извлечения 5.0 X
Качество диапазона 100.0 %
CRC теста 63BC2341
CRC копии 63BC2341
Копирование… OK

Ошибок не произошло

AccurateRip: сводка

Трек 1 : извлечено точно (доверие 8) [1D5DC442] (AR v2)
Трек 2 : извлечено точно (доверие 8) [3DE19767] (AR v2)
Трек 3 : извлечено точно (доверие 8) [979EB284] (AR v2)
Трек 4 : извлечено точно (доверие 8) [172BC640] (AR v2)
Трек 5 : извлечено точно (доверие 8) [6588E59E] (AR v2)
Трек 6 : извлечено точно (доверие 8) [14C1BA8C] (AR v2)
Трек 7 : извлечено точно (доверие 8) [FF110AD8] (AR v2)
Трек 8 : извлечено точно (доверие 8) [CB15CA77] (AR v2)
Трек 9 : извлечено точно (доверие 8) [FBC84E84] (AR v2)
Трек 10 : извлечено точно (доверие 7) [A1B3E9C6] (AR v2)
Трек 11 : извлечено точно (доверие 6) [6B14D152] (AR v2)
Трек 12 : извлечено точно (доверие 7) [5DF1EAFE] (AR v2)
Трек 13 : извлечено точно (доверие 6) [AD29FF29] (AR v2)
Трек 14 : извлечено точно (доверие 6) [BA8427A7] (AR v2)
Трек 15 : извлечено точно (доверие 6) [E17AC1AD] (AR v2)

Все треки извлечены точно

Конец отчёта

==== Контрольная сумма отчёта 2150BAC94C64618811D32A07A29EEB89666FBD51BEA0E8AB6002E3B4D0A24F75 ====

REM GENRE “Hard Rock”
REM DATE 1971
REM DISCID D50FB60F
REM COMMENT “ExactAudioCopy v1.1”
PERFORMER “Nazareth”
TITLE “Nazareth”
FILE “Nazareth – 1971 – Nazareth [2002 Eagle Records, EAMCD145].flac” WAVE
TRACK 01 AUDIO
TITLE “Witchdoctor Woman”
PERFORMER “Nazareth”
INDEX 01 00:00:00
TRACK 02 AUDIO
TITLE “Dear John”
PERFORMER “Nazareth”
INDEX 00 04:06:25
INDEX 01 04:07:28
TRACK 03 AUDIO
TITLE “Empty Arms, Empty Heart”
PERFORMER “Nazareth”
INDEX 00 07:52:44
INDEX 01 07:54:15
TRACK 04 AUDIO
TITLE “I Had A Dream”
PERFORMER “Nazareth”
INDEX 00 11:06:12
INDEX 01 11:07:49
TRACK 05 AUDIO
TITLE “Red Light Lady”
PERFORMER “Nazareth”
INDEX 00 14:29:02
INDEX 01 14:31:24
TRACK 06 AUDIO
TITLE “Fat Man”
PERFORMER “Nazareth”
INDEX 00 20:27:66
INDEX 01 20:30:26
TRACK 07 AUDIO
TITLE “Country Girl”
PERFORMER “Nazareth”
INDEX 00 23:53:02
INDEX 01 23:55:43
TRACK 08 AUDIO
TITLE “Morning Dew”
PERFORMER “Nazareth”
INDEX 00 27:58:04
INDEX 01 28:01:57
TRACK 09 AUDIO
TITLE “The King Is Dead”
PERFORMER “Nazareth”
INDEX 00 35:06:33
INDEX 01 35:09:17
TRACK 10 AUDIO
TITLE “Friends [*][B-side]”
PERFORMER “Nazareth”
INDEX 00 39:51:02
INDEX 01 40:00:63
TRACK 11 AUDIO
TITLE “Dear John [*][single edit]”
PERFORMER “Nazareth”
INDEX 00 43:23:51
INDEX 01 43:23:72
TRACK 12 AUDIO
TITLE “Morning Dew [*][alternate edited version]”
PERFORMER “Nazareth”
INDEX 00 46:05:44
INDEX 01 46:06:40
TRACK 13 AUDIO
TITLE “Friends [*][alternate edit of B-side]”
PERFORMER “Nazareth”
INDEX 00 50:55:60
INDEX 01 50:57:21
TRACK 14 AUDIO
TITLE “Morning Dew [*][extended single version]”
PERFORMER “Nazareth”
INDEX 00 54:21:07
INDEX 01 54:23:25
TRACK 15 AUDIO
TITLE “Witchdoctor Woman [*][previously unreleased version]”
PERFORMER “Nazareth”
INDEX 00 62:28:68
INDEX 01 62:30:48


0

Publication author

offline 7 days

Chaos

3
Comments: 4Publics: 3565Registration: 02-02-2019
Spread the Download

Leave a Reply

Your email address will not be published. Required fields are marked *

Enter the text from the image below
 

This site uses Akismet to reduce spam. Learn how your comment data is processed.