Nazareth – Nazareth (Reissue)




Artist: Nazareth
Year: 1971/1992
Genre: Rock
Notes: Discogs
Add. Notes: Reissue
Cover incl.: Yes
Encoder: FLAC
Bitrate: ~800 kBit/s (44.1 kHz/16 Bit/s)
Log & Cue incl.: Yes
Size: 297 MB
Password: “slam” (without ” “)


All Downloads/Hosters are compatible

Download 1
KatFile.com
Turbobit.net
FileFactory.com
Rapidgator.net
Download 2
KatFile.com
Turbobit.net
FileFactory.com
Rapidgator.net

Tracklist:

01. Witchdoctor Woman
02. Dear John
03. Empty Arms, Empty Heart
04. I Had A Dream
05. Red Light Lady
06. Fat Man
07. Country Girl
08. Morning Dew
09. King Is Dead

EAC-Log, CUE-Sheed & NFO:

Click to open spoiler
X Lossless Decoder version 20131102 (145.0)

XLD extraction logfile from 2014-01-24 23:17:05 +0300

Nazareth / Nazareth (CLACD 286)

Used drive : HL-DT-ST DVDRAM GE20NU11 (revision CN01)
Media type : Pressed CD

Ripper mode : XLD Secure Ripper
Disable audio cache : OK for the drive with a cache less than 1375KiB
Make use of C2 pointers : NO
Read offset correction : 667
Max retry count : 20
Gap status : Analyzed, Appended

TOC of the extracted CD
Track | Start | Length | Start sector | End sector
———————————————————
1 | 00:00:33 | 04:10:25 | 33 | 18807
2 | 04:10:58 | 03:50:27 | 18808 | 36084
3 | 08:01:10 | 03:17:68 | 36085 | 50927
4 | 11:19:03 | 03:25:27 | 50928 | 66329
5 | 14:44:30 | 06:00:63 | 66330 | 93392
6 | 20:45:18 | 03:27:72 | 93393 | 108989
7 | 24:13:15 | 04:09:25 | 108990 | 127689
8 | 28:22:40 | 07:11:50 | 127690 | 160064
9 | 35:34:15 | 04:45:18 | 160065 | 181457

AccurateRip Summary (DiscID: 000ce004-005fd817-74097309)
Track 01 : OK (v1+v2, confidence 8/8)
Track 02 : OK (v1+v2, confidence 7/7)
Track 03 : OK (v1+v2, confidence 7/7)
Track 04 : OK (v1+v2, confidence 7/7)
Track 05 : OK (v1+v2, confidence 8/8)
Track 06 : OK (v1+v2, confidence 7/7)
Track 07 : OK (v1+v2, confidence 7/7)
Track 08 : OK (v1+v2, confidence 7/7)
Track 09 : OK (v1+v2, confidence 7/7)
->All tracks accurately ripped.

All Tracks
Filename : /Nazareth discography/1971. Nazareth – Nazareth (Castle Com., CLACD 286, EEC)/Nazareth – Nazareth (CLACD 286).flac
Album gain : -2.68 dB
Peak : 0.945312
CRC32 hash (test run) : D40C7838
CRC32 hash : D40C7838
CRC32 hash (skip zero) : B15C52EB
Statistics
Read error : 0
Jitter error (maybe fixed) : 0
Retry sector count : 0
Damaged sector count : 0

Track 01
Pre-gap length : 00:02:33

Track gain : -3.24 dB
Peak : 0.945312
CRC32 hash (test run) : 618CB357
CRC32 hash : 618CB357
CRC32 hash (skip zero) : CE97152F
AccurateRip v1 signature : 8B3B88F3
AccurateRip v2 signature : B4BDBC0F
->Accurately ripped (v1+v2, confidence 4+4/8)
Statistics
Read error : 0
Jitter error (maybe fixed) : 0
Retry sector count : 0
Damaged sector count : 0

Track 02
Pre-gap length : 00:02:63

Track gain : -3.46 dB
Peak : 0.945312
CRC32 hash (test run) : 25915205
CRC32 hash : 25915205
CRC32 hash (skip zero) : 80E0CA80
AccurateRip v1 signature : 68C4FE4E
AccurateRip v2 signature : EE80E36F
->Accurately ripped (v1+v2, confidence 4+3/7)
Statistics
Read error : 0
Jitter error (maybe fixed) : 0
Retry sector count : 0
Damaged sector count : 0

Track 03
Pre-gap length : 00:04:35

Track gain : -3.17 dB
Peak : 0.945312
CRC32 hash (test run) : AA656776
CRC32 hash : AA656776
CRC32 hash (skip zero) : CEFF856F
AccurateRip v1 signature : 715D6C91
AccurateRip v2 signature : 5174C8B0
->Accurately ripped (v1+v2, confidence 4+3/7)
Statistics
Read error : 0
Jitter error (maybe fixed) : 0
Retry sector count : 0
Damaged sector count : 0

Track 04
Pre-gap length : 00:05:28

Track gain : 3.84 dB
Peak : 0.503784
CRC32 hash (test run) : 0F309CD1
CRC32 hash : 0F309CD1
CRC32 hash (skip zero) : 2A15090E
AccurateRip v1 signature : 1CEE75C7
AccurateRip v2 signature : C5F9EBF8
->Accurately ripped (v1+v2, confidence 4+3/7)
Statistics
Read error : 0
Jitter error (maybe fixed) : 0
Retry sector count : 0
Damaged sector count : 0

Track 05
Pre-gap length : 00:02:65

Track gain : -3.78 dB
Peak : 0.945312
CRC32 hash (test run) : FA8BBAA6
CRC32 hash : FA8BBAA6
CRC32 hash (skip zero) : 763C72F5
AccurateRip v1 signature : AA9B508B
AccurateRip v2 signature : D1D01357
->Accurately ripped (v1+v2, confidence 5+3/8)
Statistics
Read error : 0
Jitter error (maybe fixed) : 0
Retry sector count : 0
Damaged sector count : 0

Track 06
Pre-gap length : 00:03:43

Track gain : -0.69 dB
Peak : 0.767975
CRC32 hash (test run) : 01F7DD76
CRC32 hash : 01F7DD76
CRC32 hash (skip zero) : 07B6D538
AccurateRip v1 signature : BF8332DC
AccurateRip v2 signature : BB1B3DDC
->Accurately ripped (v1+v2, confidence 4+3/7)
Statistics
Read error : 0
Jitter error (maybe fixed) : 0
Retry sector count : 0
Damaged sector count : 0

Track 07
Pre-gap length : 00:04:00

Track gain : 0.19 dB
Peak : 0.785248
CRC32 hash (test run) : 1CB7DB53
CRC32 hash : 1CB7DB53
CRC32 hash (skip zero) : CEE3FA77
AccurateRip v1 signature : 5CD537D5
AccurateRip v2 signature : BC38E947
->Accurately ripped (v1+v2, confidence 4+3/7)
Statistics
Read error : 0
Jitter error (maybe fixed) : 0
Retry sector count : 0
Damaged sector count : 0

Track 08
Pre-gap length : 00:04:45

Track gain : 1.53 dB
Peak : 0.786896
CRC32 hash (test run) : BECE73F3
CRC32 hash : BECE73F3
CRC32 hash (skip zero) : B8AFD982
AccurateRip v1 signature : 58F0B7FE
AccurateRip v2 signature : 91E306F4
->Accurately ripped (v1+v2, confidence 4+3/7)
Statistics
Read error : 0
Jitter error (maybe fixed) : 0
Retry sector count : 0
Damaged sector count : 0

Track 09
Pre-gap length : 00:05:37

Track gain : 2.34 dB
Peak : 0.504822
CRC32 hash (test run) : 8DC8EE9F
CRC32 hash : 8DC8EE9F
CRC32 hash (skip zero) : AE8A5BAD
AccurateRip v1 signature : 12BD08A0
AccurateRip v2 signature : 7FC050F0
->Accurately ripped (v1+v2, confidence 4+3/7)
Statistics
Read error : 0
Jitter error (maybe fixed) : 0
Retry sector count : 0
Damaged sector count : 0

No errors occurred

End of status report

—–BEGIN XLD SIGNATURE—–
y5stCH3rvN__xUTn8PQS6jutf7_IMXj9p9hDKI9Q7_9ULw_GZI_HLgFGWw8kBsydHSS4JBEqLKe9oyNSB6BTOyJrPTd1NaMe6j3sxvq
—–END XLD SIGNATURE—–

TITLE “Nazareth (CLACD 286)”
PERFORMER “Nazareth”
REM GENRE “Hard Rock”
REM DATE “1971”
REM DISCID 74097309
REM REPLAYGAIN_ALBUM_GAIN -2.68 dB
REM REPLAYGAIN_ALBUM_PEAK 0.945312
FILE “Nazareth – Nazareth (CLACD 286).flac” WAVE
TRACK 01 AUDIO
TITLE “Witchdoctor Woman”
REM REPLAYGAIN_TRACK_GAIN -3.24 dB
REM REPLAYGAIN_TRACK_PEAK 0.945312
INDEX 00 00:00:00
INDEX 01 00:00:33
TRACK 02 AUDIO
TITLE “Dear John”
REM REPLAYGAIN_TRACK_GAIN -3.46 dB
REM REPLAYGAIN_TRACK_PEAK 0.945312
INDEX 00 04:07:70
INDEX 01 04:10:58
TRACK 03 AUDIO
TITLE “Empty Arms, Empty Heart”
REM REPLAYGAIN_TRACK_GAIN -3.17 dB
REM REPLAYGAIN_TRACK_PEAK 0.945312
INDEX 00 07:56:50
INDEX 01 08:01:10
TRACK 04 AUDIO
TITLE “I Had A Dream”
REM REPLAYGAIN_TRACK_GAIN 3.84 dB
REM REPLAYGAIN_TRACK_PEAK 0.503784
INDEX 00 11:13:50
INDEX 01 11:19:03
TRACK 05 AUDIO
TITLE “Red Light Lady”
REM REPLAYGAIN_TRACK_GAIN -3.78 dB
REM REPLAYGAIN_TRACK_PEAK 0.945312
INDEX 00 14:41:40
INDEX 01 14:44:30
TRACK 06 AUDIO
TITLE “Fat Man”
REM REPLAYGAIN_TRACK_GAIN -0.69 dB
REM REPLAYGAIN_TRACK_PEAK 0.767975
INDEX 00 20:41:50
INDEX 01 20:45:18
TRACK 07 AUDIO
TITLE “Country Girl”
REM REPLAYGAIN_TRACK_GAIN 0.19 dB
REM REPLAYGAIN_TRACK_PEAK 0.785248
INDEX 00 24:09:15
INDEX 01 24:13:15
TRACK 08 AUDIO
TITLE “Morning Dew”
REM REPLAYGAIN_TRACK_GAIN 1.53 dB
REM REPLAYGAIN_TRACK_PEAK 0.786896
INDEX 00 28:17:70
INDEX 01 28:22:40
TRACK 09 AUDIO
TITLE “King Is Dead”
REM REPLAYGAIN_TRACK_GAIN 2.34 dB
REM REPLAYGAIN_TRACK_PEAK 0.504822
INDEX 00 35:28:53
INDEX 01 35:34:15


Leave a Reply

Your email address will not be published. Required fields are marked *

This site uses Akismet to reduce spam. Learn how your comment data is processed.