Nazareth – Nazareth / Exercises (Remastered)




No Cover available


Artist: Nazareth
Year: 2010
Genre: Rock
Notes: Discogs
Add. Notes: Remastered
Watch Songs on: YouTube
Cover incl.: Yes
Encoder: FLAC
Bitrate: ~900 kBit/s (44.1 kHz/16 Bit/s)
Log & Cue incl.: Yes/Yes
Size: 611,6 MB
Password: “slam” (without ” “)


All Downloads/Hosters are compatible

Download 1
KatFile.com
Turbobit.net
Rapidgator.net
FileFactory.com
Download 2
KatFile.com
Turbobit.net
Rapidgator.net
FileFactory.com

Tracklist:

Nazareth
1 Witchdoctor Woman 
2 Dear John 
3 Empty Arms, Empty Heart 
4 I Had A Dream 
5 Red Light Lady (Part 1 & 2) 
6 Fat Man 
7 Country Girl 
8 Morning Dew 
9 The King Is Dead 

Exercises
10 I Will Not Be Led 
11 Cat’s Eye, Apple Pie 
12 In My Time 
13 Woke Up This Morning 
14 Called Her Name 
15 Fool About You 
16 Love Now You’re Gone 
17 Madelaine 
18 Sad Song 
19 1692 (Glencoe Massacre)

EAC-Log, CUE-Sheed & NFO:

Click to open spoiler
Exact Audio Copy V1.0 beta 3 from 29. August 2011

EAC extraction logfile from 30. December 2012, 12:19

Nazareth / Nazareth+Exersices (Remaster 2009)

Used drive : ATAPI iHAS124 B Adapter: 2 ID: 0

Read mode : Secure
Utilize accurate stream : Yes
Defeat audio cache : Yes
Make use of C2 pointers : No

Read offset correction : 6
Overread into Lead-In and Lead-Out : No
Fill up missing offset samples with silence : Yes
Delete leading and trailing silent blocks : No
Null samples used in CRC calculations : Yes
Used interface : Native Win32 interface for Win NT & 2000

Used output format : User Defined Encoder
Selected bitrate : 1024 kBit/s
Quality : High
Add ID3 tag : No
Command line compressor : C:\Program Files (x86)\Exact Audio Copy\FLAC\FLAC.EXE
Additional command line options : -8 -V -T “ARTIST=%artist%” -T “TITLE=%title%” -T “ALBUM=%albumtitle%” -T “DATE=%year%” -T “TRACKNUMBER=%tracknr%” -T “GENRE=%genre%” -T “PERFORMER=%albuminterpret%” -T “COMPOSER=%composer%” %haslyrics%–tag-from-file=LYRICS=”%lyricsfile%”%haslyrics% -T “ALBUMARTIST=%albumartist%” -T “DISCNUMBER=%cdnumber%” -T “TOTALDISCS=%totalcds%” -T “TOTALTRACKS=%numtracks%” -T “COMMENT=%comment%” %source% -o %dest%

TOC of the extracted CD

Track | Start | Length | Start sector | End sector
———————————————————
1 | 0:00.00 | 4:07.09 | 0 | 18533
2 | 4:07.09 | 3:46.52 | 18534 | 35535
3 | 7:53.61 | 3:13.71 | 35536 | 50081
4 | 11:07.57 | 3:22.37 | 50082 | 65268
5 | 14:30.19 | 5:59.40 | 65269 | 92233
6 | 20:29.59 | 3:25.01 | 92234 | 107609
7 | 23:54.60 | 4:04.43 | 107610 | 125952
8 | 27:59.28 | 7:05.44 | 125953 | 157871
9 | 35:04.72 | 4:44.31 | 157872 | 179202
10 | 39:49.28 | 3:04.72 | 179203 | 193074
11 | 42:54.25 | 3:04.63 | 193075 | 206937
12 | 45:59.13 | 3:28.69 | 206938 | 222606
13 | 49:28.07 | 3:10.50 | 222607 | 236906
14 | 52:38.57 | 4:29.64 | 236907 | 257145
15 | 57:08.46 | 2:47.19 | 257146 | 269689
16 | 59:55.65 | 2:25.53 | 269690 | 280617
17 | 62:21.43 | 5:54.36 | 280618 | 307203
18 | 68:16.04 | 2:14.41 | 307204 | 317294
19 | 70:30.45 | 3:55.37 | 317295 | 334956

Range status and errors

Selected range

Filename G:\CD\Nazareth – Nazareth+Exersices (Remaster 2009).wav

Peak level 97.7 %
Extraction speed 6.2 X
Range quality 99.9 %
Test CRC E533904E
Copy CRC E533904E
Copy OK

No errors occurred

AccurateRip summary

Track 1 not present in database
Track 2 not present in database
Track 3 not present in database
Track 4 not present in database
Track 5 not present in database
Track 6 not present in database
Track 7 not present in database
Track 8 not present in database
Track 9 not present in database
Track 10 not present in database
Track 11 not present in database
Track 12 not present in database
Track 13 not present in database
Track 14 not present in database
Track 15 not present in database
Track 16 not present in database
Track 17 not present in database
Track 18 not present in database
Track 19 not present in database

None of the tracks are present in the AccurateRip database

End of status report

==== Log checksum 1C160F27867078D2B0541C4EBD5DD8542B3AFEBCD7C9EED9B269B465EB0CFBEF ====

REM GENRE Rock
REM DATE 2009
REM DISCID 18117213
REM COMMENT “ExactAudioCopy v1.0b3”
PERFORMER “Nazareth”
TITLE “Nazareth+Exersices (Remaster 2009)”
FILE “Nazareth – Nazareth+Exersices (Remaster 2009).flac” WAVE
TRACK 01 AUDIO
TITLE “Witchdoctor Woman”
PERFORMER “Nazareth”
INDEX 01 00:00:00
TRACK 02 AUDIO
TITLE “Dear John”
PERFORMER “Nazareth”
INDEX 01 04:07:09
TRACK 03 AUDIO
TITLE “Empty Arms, Empty Heart”
PERFORMER “Nazareth”
INDEX 01 07:53:61
TRACK 04 AUDIO
TITLE “I Had A Dream”
PERFORMER “Nazareth”
INDEX 01 11:07:57
TRACK 05 AUDIO
TITLE “Red Light Lady (Part 1 & 2)”
PERFORMER “Nazareth”
INDEX 01 14:30:19
TRACK 06 AUDIO
TITLE “Fat Man”
PERFORMER “Nazareth”
INDEX 01 20:29:59
TRACK 07 AUDIO
TITLE “Country Girl”
PERFORMER “Nazareth”
INDEX 01 23:54:60
TRACK 08 AUDIO
TITLE “Morning Dew”
PERFORMER “Nazareth”
INDEX 01 27:59:28
TRACK 09 AUDIO
TITLE “The King Is Dead”
PERFORMER “Nazareth”
INDEX 01 35:04:72
TRACK 10 AUDIO
TITLE “I Will Not Be Led”
PERFORMER “Nazareth”
INDEX 01 39:49:28
TRACK 11 AUDIO
TITLE “Cat’s Eye, Apple Pie”
PERFORMER “Nazareth”
INDEX 01 42:54:25
TRACK 12 AUDIO
TITLE “In My Time”
PERFORMER “Nazareth”
INDEX 01 45:59:13
TRACK 13 AUDIO
TITLE “Woke Up This Morning”
PERFORMER “Nazareth”
INDEX 01 49:28:07
TRACK 14 AUDIO
TITLE “Called Your Name”
PERFORMER “Nazareth”
INDEX 01 52:38:57
TRACK 15 AUDIO
TITLE “Fool About You”
PERFORMER “Nazareth”
INDEX 01 57:08:46
TRACK 16 AUDIO
TITLE “Love Now You’re Gone”
PERFORMER “Nazareth”
INDEX 01 59:55:65
TRACK 17 AUDIO
TITLE “Madelaine”
PERFORMER “Nazareth”
INDEX 01 62:21:43
TRACK 18 AUDIO
TITLE “Sad Song”
PERFORMER “Nazareth”
INDEX 01 68:16:04
TRACK 19 AUDIO
TITLE “1692 (Glencoe Massacre)”
PERFORMER “Nazareth”
INDEX 01 70:30:45


Leave a Reply

Your email address will not be published. Required fields are marked *

Enter the text from the image below
 

This site uses Akismet to reduce spam. Learn how your comment data is processed.