Nazareth – Move Me (Remastered)




Artist: Nazareth
Year: 1994/2002
Genre: Rock
Notes: Discogs
Add. Notes: Remastered
Cover incl.: Yes
Encoder: FLAC
Bitrate: ~900 kBit/s (44.1 kHz/16 Bit/s)
Log & Cue incl.: Yes
Size: 645,84 MB
Password: “slam” (without ” “)


All Downloads/Hosters are compatible

Download 1
Turbobit.net
KatFile.com
Rapidgator.net
NitroFlare.com
Download 2
Turbobit.net
KatFile.com
Rapidgator.net
NitroFlare.com

Tracklist:

1 - Let Me Be Your Dog - 4:39
2 - Can't Shake Those Shakes - 3:22
3 - Crack Me Up - 3:40
4 - Move Me - 3:43
5 - Streamroller - 4:28
6 - Stand By Your Beds - 4:11
7 - Rip It Up - 3:32
8 - Demon Alcohol - 2:56
9 - You Had It Comin' - 4:58
10 - Bring It On Home Mama - 3:58
11 - Burning Down - 4:48
Bonus Tracks
12 - Love Hurts (Rock Orchestra Version) - 4:05
13 - Razamanaz (Unplugged) - 4:33
14 - My White Bicycle (Unplugged) - 2:54
15 - This Flight Tonight (Unplugged) - 4:00
16 - Let Me Be Your Dog (Edited Version) - 5:29
17 - Can't Shake Those Shakes (Edited Version) - 2:50
18 - Move Me (Edited Version) - 3:35

EAC-Log, CUE-Sheed & NFO:

Click to open spoiler
Exact Audio Copy V1.1 from 23. June 2015

Отчёт EAC об извлечении, выполненном 18. августа 2016, 18:29

Nazareth / Move Me

Дисковод: TSSTcorpBDDVDW SE-506BB Adapter: 1 ID: 1

Режим чтения : Достоверность
Использование точного потока : Да
Отключение кэша аудио : Да
Использование указателей C2 : Нет

Коррекция смещения при чтении : 6
Способность читать области Lead-in и Lead-out : Нет
Заполнение пропущенных сэмплов тишиной : Да
Удаление блоков с тишиной в начале и конце : Нет
При вычислениях CRC использовались нулевые сэмплы : Да
Интерфейс : Встроенный Win32-интерфейс для Win NT/2000

Выходной формат : Внутренние WAV-операции
Формат сэмплов : 44.100 Гц; 16 бит; стерео

TOC извлечённого CD

Трек | Старт | Длительность | Начальный сектор | Конечный сектор
———————————————————————
1 | 0:00.00 | 4:39.21 | 0 | 20945
2 | 4:39.21 | 3:22.50 | 20946 | 36145
3 | 8:01.71 | 3:41.73 | 36146 | 52793
4 | 11:43.69 | 3:45.15 | 52794 | 69683
5 | 15:29.09 | 4:29.03 | 69684 | 89861
6 | 19:58.12 | 4:13.62 | 89862 | 108898
7 | 24:11.74 | 3:34.74 | 108899 | 125022
8 | 27:46.73 | 2:58.28 | 125023 | 138400
9 | 30:45.26 | 5:00.46 | 138401 | 160946
10 | 35:45.72 | 4:00.37 | 160947 | 178983
11 | 39:46.34 | 4:45.35 | 178984 | 200393
12 | 44:31.69 | 4:06.25 | 200394 | 218868
13 | 48:38.19 | 4:34.51 | 218869 | 239469
14 | 53:12.70 | 2:56.53 | 239470 | 252722
15 | 56:09.48 | 4:03.47 | 252723 | 270994
16 | 60:13.20 | 5:32.15 | 270995 | 295909
17 | 65:45.35 | 2:53.72 | 295910 | 308956
18 | 68:39.32 | 3:35.69 | 308957 | 325150

Характеристики диапазона извлечения и сообщения об ошибках

Выбранный диапазон

Имя файла D:\Temp\Nazareth – 1994 – Move Me [2002 Eagle Records, EAMCD149].wav

Пиковый уровень 90.2 %
Скорость извлечения 5.0 X
Качество диапазона 100.0 %
CRC теста EDC80AF2
CRC копии EDC80AF2
Копирование… OK

Ошибок не произошло

AccurateRip: сводка

Трек 1 : извлечено точно (доверие 2) [0D5F6BA1] (AR v2)
Трек 2 : извлечено точно (доверие 2) [6F5D2C45] (AR v2)
Трек 3 : извлечено точно (доверие 2) [35974F80] (AR v2)
Трек 4 : извлечено точно (доверие 2) [71C087C9] (AR v2)
Трек 5 : извлечено точно (доверие 2) [B71C446C] (AR v2)
Трек 6 : извлечено точно (доверие 2) [F0A94F6E] (AR v2)
Трек 7 : извлечено точно (доверие 2) [0284FF6E] (AR v2)
Трек 8 : извлечено точно (доверие 2) [BC8E0875] (AR v2)
Трек 9 : извлечено точно (доверие 2) [A928C1E4] (AR v2)
Трек 10 : извлечено точно (доверие 2) [B600317D] (AR v2)
Трек 11 : извлечено точно (доверие 2) [9D5009B3] (AR v2)
Трек 12 : извлечено точно (доверие 2) [4A6FB42F] (AR v2)
Трек 13 : извлечено точно (доверие 2) [C26F5A0F] (AR v2)
Трек 14 : извлечено точно (доверие 2) [A72D40D5] (AR v2)
Трек 15 : извлечено точно (доверие 2) [8666A1B2] (AR v2)
Трек 16 : извлечено точно (доверие 2) [EB190228] (AR v2)
Трек 17 : извлечено точно (доверие 2) [602D138C] (AR v2)
Трек 18 : извлечено точно (доверие 2) [059625AA] (AR v2)

Все треки извлечены точно

Конец отчёта

==== Контрольная сумма отчёта FA8E063C7BAC7578470EB674F1BEA077D901046061BC19D4FF0A526AD53EB95C ====

REM GENRE “Hard Rock”
REM DATE 1994
REM DISCID FD10EF12
REM COMMENT “ExactAudioCopy v1.1”
PERFORMER “Nazareth”
TITLE “Move Me ”
FILE “Nazareth – 1994 – Move Me [2002 Eagle Records, EAMCD149].flac” WAVE
TRACK 01 AUDIO
TITLE “Let Me Be Your Dog”
PERFORMER “Nazareth”
INDEX 01 00:00:00
TRACK 02 AUDIO
TITLE “Can’t Shake Those Shakes”
PERFORMER “Nazareth”
INDEX 00 04:31:18
INDEX 01 04:39:21
TRACK 03 AUDIO
TITLE “Crack Me Up”
PERFORMER “Nazareth”
INDEX 01 08:01:71
TRACK 04 AUDIO
TITLE “Move Me”
PERFORMER “Nazareth”
INDEX 00 11:42:58
INDEX 01 11:43:69
TRACK 05 AUDIO
TITLE “Steamroller”
PERFORMER “Nazareth”
INDEX 00 15:27:29
INDEX 01 15:29:09
TRACK 06 AUDIO
TITLE “Stand By Your Beds”
PERFORMER “Nazareth”
INDEX 00 19:57:66
INDEX 01 19:58:12
TRACK 07 AUDIO
TITLE “Rip It Up”
PERFORMER “Nazareth”
INDEX 00 24:09:56
INDEX 01 24:11:74
TRACK 08 AUDIO
TITLE “Demon Alcohol”
PERFORMER “Nazareth”
INDEX 00 27:44:19
INDEX 01 27:46:73
TRACK 09 AUDIO
TITLE “You Had It Comin'”
PERFORMER “Nazareth”
INDEX 00 30:43:47
INDEX 01 30:45:26
TRACK 10 AUDIO
TITLE “Bring It On Home Mama”
PERFORMER “Nazareth”
INDEX 00 35:43:66
INDEX 01 35:45:72
TRACK 11 AUDIO
TITLE “Burning Down”
PERFORMER “Nazareth”
INDEX 00 39:44:68
INDEX 01 39:46:34
TRACK 12 AUDIO
TITLE “Love Hurts [*][rock orchestra version]”
PERFORMER “Nazareth”
INDEX 00 44:24:71
INDEX 01 44:31:69
TRACK 13 AUDIO
TITLE “Razamanaz [*][unplugged]”
PERFORMER “Nazareth”
INDEX 00 48:37:34
INDEX 01 48:38:19
TRACK 14 AUDIO
TITLE “My White Bicycle [*][unplugged]”
PERFORMER “Nazareth”
INDEX 00 53:11:20
INDEX 01 53:12:70
TRACK 15 AUDIO
TITLE “This Flight Tonight [*][unplugged]”
PERFORMER “Nazareth”
INDEX 00 56:07:68
INDEX 01 56:09:48
TRACK 16 AUDIO
TITLE “Let Me Be Your Dog [*][edited version]”
PERFORMER “Nazareth”
INDEX 00 60:10:39
INDEX 01 60:13:20
TRACK 17 AUDIO
TITLE “Can’t Shake Those Shakes [*][edited version]”
PERFORMER “Nazareth”
INDEX 00 65:42:33
INDEX 01 65:45:35
TRACK 18 AUDIO
TITLE “Move Me [*][edited version]”
PERFORMER “Nazareth”
INDEX 00 68:36:19
INDEX 01 68:39:32


Leave a Reply

Your email address will not be published. Required fields are marked *

Enter the text from the image below
 

This site uses Akismet to reduce spam. Learn how your comment data is processed.