Nazareth – Move Me / Boogaloo (Remastered)




Artist: Nazareth
Year: 2011
Genre: Rock
Notes: Discogs
Add. Notes: Remastered
Cover incl.: Yes
Encoder: FLAC
Bitrate: ~1000 kBit/s (44.1 kHz/16 Bit/s)
Log & Cue incl.: Yes
Size: 1059 MB
Password: “slam” (without ” “)


All Downloads/Hosters are compatible

Download 1
KatFile.com
Turbobit.net
FileFactory.com
Rapidgator.net
Download 2
KatFile.com
Turbobit.net
FileFactory.com
Rapidgator.net

Tracklist:

CD 01 Move Me
1-1 - Let Me Be Your Dog 
1-2 - Can't Shake Those Shakes 
1-3 - Crack Me Up 
1-4 - Move Me 
1-5 - Steamroller 
1-6 - Stand By Your Beds 
1-7 - Rip It Up 
1-8 - Demon Alcohol 
1-9 - You Had It Comin' 
1-10 - Bring It On Home To Mama 
1-11 - Burning Down 
Bonus Tracks
1-12 - Love Hurts (Rock Orchestra 
Version) 
1-13 - Razamanaz (Unplugged) 
1-14 - My White Bicycle (Unplugged) 
1-15 - This Flight Tonight 
(Unplugged) 
1-16 - Love Hurts (Instrumental 
Orchestra Version) 

CD 02 Boogaloo
2-1 - Light Comes Down 
2-2 - Cheerleader 
2-3 - Loverman 
2-4 - Open Up Woman 
2-5 - Talk Talk 
2-6 - Nothing Soo Good 
2-7 - Party In The Kremlin 
2-8 - God Save The South 
2-9 - Robber The Roadie 
2-10 - Waiting 
2-11 - May Heaven Keep You 
Bonus Tracks
2-12 - Laid To Wasted 
2-13 - Walk By Yourself

EAC-Log, CUE-Sheed & NFO:

Click to open spoiler
Exact Audio Copy V1.0 beta 3 from 29. August 2011

EAC extraction logfile from 31. December 2012, 11:20

Nazareth / Move Me (Remaster 2011)

Used drive : ATAPI iHAS124 B Adapter: 2 ID: 0

Read mode : Secure
Utilize accurate stream : Yes
Defeat audio cache : Yes
Make use of C2 pointers : No

Read offset correction : 6
Overread into Lead-In and Lead-Out : No
Fill up missing offset samples with silence : Yes
Delete leading and trailing silent blocks : No
Null samples used in CRC calculations : Yes
Used interface : Native Win32 interface for Win NT & 2000

Used output format : User Defined Encoder
Selected bitrate : 1024 kBit/s
Quality : High
Add ID3 tag : No
Command line compressor : C:\Program Files (x86)\Exact Audio Copy\FLAC\FLAC.EXE
Additional command line options : -8 -V -T “ARTIST=%artist%” -T “TITLE=%title%” -T “ALBUM=%albumtitle%” -T “DATE=%year%” -T “TRACKNUMBER=%tracknr%” -T “GENRE=%genre%” -T “PERFORMER=%albuminterpret%” -T “COMPOSER=%composer%” %haslyrics%–tag-from-file=LYRICS=”%lyricsfile%”%haslyrics% -T “ALBUMARTIST=%albumartist%” -T “DISCNUMBER=%cdnumber%” -T “TOTALDISCS=%totalcds%” -T “TOTALTRACKS=%numtracks%” -T “COMMENT=%comment%” %source% -o %dest%

TOC of the extracted CD

Track | Start | Length | Start sector | End sector
———————————————————
1 | 0:00.00 | 4:36.53 | 0 | 20752
2 | 4:36.53 | 3:21.65 | 20753 | 35892
3 | 7:58.43 | 3:41.41 | 35893 | 52508
4 | 11:40.09 | 3:44.72 | 52509 | 69380
5 | 15:25.06 | 4:28.57 | 69381 | 89537
6 | 19:53.63 | 4:13.23 | 89538 | 108535
7 | 24:07.11 | 3:34.14 | 108536 | 124599
8 | 27:41.25 | 2:58.64 | 124600 | 138013
9 | 30:40.14 | 4:59.55 | 138014 | 160493
10 | 35:39.69 | 4:01.02 | 160494 | 178570
11 | 39:40.71 | 4:39.69 | 178571 | 199564
12 | 44:20.65 | 4:06.59 | 199565 | 218073
13 | 48:27.49 | 4:35.45 | 218074 | 238743
14 | 53:03.19 | 2:57.20 | 238744 | 252038
15 | 56:00.39 | 4:01.62 | 252039 | 270175
16 | 60:02.26 | 4:08.09 | 270176 | 288784

Range status and errors

Selected range

Filename G:\CD\Nazareth – Move Me.wav

Peak level 97.7 %
Extraction speed 6.2 X
Range quality 100.0 %
Test CRC B6C00B6E
Copy CRC B6C00B6E
Copy OK

No errors occurred

AccurateRip summary

Track 1 not present in database
Track 2 not present in database
Track 3 not present in database
Track 4 not present in database
Track 5 not present in database
Track 6 not present in database
Track 7 not present in database
Track 8 not present in database
Track 9 not present in database
Track 10 not present in database
Track 11 not present in database
Track 12 not present in database
Track 13 not present in database
Track 14 not present in database
Track 15 not present in database
Track 16 not present in database

None of the tracks are present in the AccurateRip database

End of status report

==== Log checksum 72A89F05EB369C5EBC3741379A69787401F743FDD12414160744DFDB9CE6605A ====

Exact Audio Copy V1.0 beta 3 from 29. August 2011

EAC extraction logfile from 31. December 2012, 13:45

Nazareth / Boogaloo (Remaster 2011)

Used drive : ATAPI iHAS124 B Adapter: 2 ID: 0

Read mode : Secure
Utilize accurate stream : Yes
Defeat audio cache : Yes
Make use of C2 pointers : No

Read offset correction : 6
Overread into Lead-In and Lead-Out : No
Fill up missing offset samples with silence : Yes
Delete leading and trailing silent blocks : No
Null samples used in CRC calculations : Yes
Used interface : Native Win32 interface for Win NT & 2000

Used output format : User Defined Encoder
Selected bitrate : 1024 kBit/s
Quality : High
Add ID3 tag : No
Command line compressor : C:\Program Files (x86)\Exact Audio Copy\FLAC\FLAC.EXE
Additional command line options : -8 -V -T “ARTIST=%artist%” -T “TITLE=%title%” -T “ALBUM=%albumtitle%” -T “DATE=%year%” -T “TRACKNUMBER=%tracknr%” -T “GENRE=%genre%” -T “PERFORMER=%albuminterpret%” -T “COMPOSER=%composer%” %haslyrics%–tag-from-file=LYRICS=”%lyricsfile%”%haslyrics% -T “ALBUMARTIST=%albumartist%” -T “DISCNUMBER=%cdnumber%” -T “TOTALDISCS=%totalcds%” -T “TOTALTRACKS=%numtracks%” -T “COMMENT=%comment%” %source% -o %dest%

TOC of the extracted CD

Track | Start | Length | Start sector | End sector
———————————————————
1 | 0:00.00 | 3:29.43 | 0 | 15717
2 | 3:29.43 | 3:13.62 | 15718 | 30254
3 | 6:43.30 | 4:27.71 | 30255 | 50350
4 | 11:11.26 | 4:28.73 | 50351 | 70523
5 | 15:40.24 | 3:51.08 | 70524 | 87856
6 | 19:31.32 | 5:05.08 | 87857 | 110739
7 | 24:36.40 | 3:36.42 | 110740 | 126981
8 | 28:13.07 | 6:32.14 | 126982 | 156395
9 | 34:45.21 | 4:21.04 | 156396 | 175974
10 | 39:06.25 | 5:44.08 | 175975 | 201782
11 | 44:50.33 | 5:45.11 | 201783 | 227668
12 | 50:35.44 | 4:16.19 | 227669 | 246887
13 | 54:51.63 | 5:02.17 | 246888 | 269554

Range status and errors

Selected range

Filename G:\CD\Nazareth – Boogaloo.wav

Peak level 97.7 %
Extraction speed 6.2 X
Range quality 100.0 %
Test CRC 9E3726BE
Copy CRC 9E3726BE
Copy OK

No errors occurred

AccurateRip summary

Track 1 not present in database
Track 2 not present in database
Track 3 not present in database
Track 4 not present in database
Track 5 not present in database
Track 6 not present in database
Track 7 not present in database
Track 8 not present in database
Track 9 not present in database
Track 10 not present in database
Track 11 not present in database
Track 12 not present in database
Track 13 not present in database

None of the tracks are present in the AccurateRip database

End of status report

==== Log checksum 2C389A44EE329A61B420CF73722DE1501BE04977276FAC152105387D565CC4B0 ====

REM GENRE Rock
REM DATE 1998
REM DISCID B60E0A0D
REM COMMENT “ExactAudioCopy v1.0b3”
PERFORMER “Nazareth”
TITLE “Boogaloo (Remaster 2011)”
FILE “Nazareth – Boogaloo.flac” WAVE
TRACK 01 AUDIO
TITLE “When The Light Comes Down”
PERFORMER “Nazareth”
INDEX 01 00:00:00
TRACK 02 AUDIO
TITLE “Cheerleader”
PERFORMER “Nazareth”
INDEX 01 03:29:43
TRACK 03 AUDIO
TITLE “Loverman”
PERFORMER “Nazareth”
INDEX 01 06:43:30
TRACK 04 AUDIO
TITLE “Open Up Woman”
PERFORMER “Nazareth”
INDEX 01 11:11:26
TRACK 05 AUDIO
TITLE “Talk Talk”
PERFORMER “Nazareth”
INDEX 01 15:40:24
TRACK 06 AUDIO
TITLE “Nothing So Good”
PERFORMER “Nazareth”
INDEX 01 19:31:32
TRACK 07 AUDIO
TITLE “Party In The Kremlin”
PERFORMER “Nazareth”
INDEX 01 24:36:40
TRACK 08 AUDIO
TITLE “God Save The South”
PERFORMER “Nazareth”
INDEX 01 28:13:07
TRACK 09 AUDIO
TITLE “Robber And The Roadie”
PERFORMER “Nazareth”
INDEX 01 34:45:21
TRACK 10 AUDIO
TITLE “Waiting”
PERFORMER “Nazareth”
INDEX 01 39:06:25
TRACK 11 AUDIO
TITLE “May Heaven Keep You”
PERFORMER “Nazareth”
INDEX 01 44:50:33
TRACK 12 AUDIO
TITLE “Laid To Wasted”
PERFORMER “Nazareth”
INDEX 01 50:35:44
TRACK 13 AUDIO
TITLE “Walk By Yourself”
PERFORMER “Nazareth”
INDEX 01 54:51:63

REM GENRE “Hard Rock”
REM DATE 1994
REM DISCID E20F0A10
REM COMMENT “ExactAudioCopy v1.0b3”
PERFORMER “Nazareth”
TITLE “Move Me (Remaster 2011)”
FILE “Nazareth – Move Me.flac” WAVE
TRACK 01 AUDIO
TITLE “Let Me Be Your Dog  ”
PERFORMER “Nazareth”
INDEX 01 00:00:00
TRACK 02 AUDIO
TITLE “Can’t Shake Those Shakes  ”
PERFORMER “Nazareth”
INDEX 01 04:36:53
TRACK 03 AUDIO
TITLE “Crack Me Up  ”
PERFORMER “Nazareth”
INDEX 01 07:58:43
TRACK 04 AUDIO
TITLE “Move Me  ”
PERFORMER “Nazareth”
INDEX 01 11:40:09
TRACK 05 AUDIO
TITLE “Steamroller  ”
PERFORMER “Nazareth”
INDEX 01 15:25:06
TRACK 06 AUDIO
TITLE “Stand By Your Beds  ”
PERFORMER “Nazareth”
INDEX 01 19:53:63
TRACK 07 AUDIO
TITLE “Rip It Up  ”
PERFORMER “Nazareth”
INDEX 01 24:07:11
TRACK 08 AUDIO
TITLE “Demon Alcohol  ”
PERFORMER “Nazareth”
INDEX 01 27:41:25
TRACK 09 AUDIO
TITLE “You Had it Comin’  ”
PERFORMER “Nazareth”
INDEX 01 30:40:14
TRACK 10 AUDIO
TITLE “Bring It on Home Mama  ”
PERFORMER “Nazareth”
INDEX 01 35:39:69
TRACK 11 AUDIO
TITLE “Burning Down  ”
PERFORMER “Nazareth”
INDEX 01 39:40:71
TRACK 12 AUDIO
TITLE “Love Hurts (rock orchestra version)”
PERFORMER “Nazareth”
INDEX 01 44:20:65
TRACK 13 AUDIO
TITLE “Razamanaz (unplugged)”
PERFORMER “Nazareth”
INDEX 01 48:27:49
TRACK 14 AUDIO
TITLE “My White Bicycle (unplugged)”
PERFORMER “Nazareth”
INDEX 01 53:03:19
TRACK 15 AUDIO
TITLE “This Flight Tonight (unplugged)”
PERFORMER “Nazareth”
INDEX 01 56:00:39
TRACK 16 AUDIO
TITLE “Love Harts (instrumental orchestra version)”
PERFORMER “Nazareth”
INDEX 01 60:02:26


Leave a Reply

Your email address will not be published. Required fields are marked *

This site uses Akismet to reduce spam. Learn how your comment data is processed.