Nazareth – Malice In Wonderland (Remastered)




Artist: Nazareth
Year: 1980/2002
Genre: Rock
Notes: Discogs
Add. Notes: Remastered
Cover incl.: Yes
Encoder: FLAC
Bitrate: ~900 kBit/s (44.1 kHz/16 Bit/s)
Log & Cue incl.: Yes
Size: 593,04 MB
Password: “slam” (without ” “)


All Downloads/Hosters are compatible

Download 1
Turbobit.net
KatFile.com
Rapidgator.net
Download 2
Turbobit.net
KatFile.com
Rapidgator.net

Tracklist:

1. Holiday 	3:35
2. Showdown At The Border 	4:10
3. Talkin' To One Of The Boys 	4:12
4. Heart's Grown Cold 	4:14
5. Fast Cars 	4:37
6. Big Boy 	3:38
7. Talkin' About Love 	3:55
8. Fallen Angel 	4:42
9. Ship Of Dreams 	4:06
10. Turning A New Leaf 	3:54
Bonus Tracks
11. Holiday (Single Edit) 	
12. Ship Of Dreams (Single Edit) 	
13. Heart's Grown Cold (Live 7" EP Version) 	
14. Talkin' To One Of The Boys (Live 7" EP Version) 
	
15. Showdown At The Border 	
16. Holiday (Live) 	
17. Heart's Grown Cold (Live)

EAC-Log, CUE-Sheed & NFO:

Click to open spoiler
Exact Audio Copy V1.1 from 23. June 2015

Отчёт EAC об извлечении, выполненном 17. августа 2016, 22:01

Nazareth / Malice In Wonderland

Дисковод: TSSTcorpBDDVDW SE-506BB Adapter: 1 ID: 1

Режим чтения : Достоверность
Использование точного потока : Да
Отключение кэша аудио : Да
Использование указателей C2 : Нет

Коррекция смещения при чтении : 6
Способность читать области Lead-in и Lead-out : Нет
Заполнение пропущенных сэмплов тишиной : Да
Удаление блоков с тишиной в начале и конце : Нет
При вычислениях CRC использовались нулевые сэмплы : Да
Интерфейс : Встроенный Win32-интерфейс для Win NT/2000

Выходной формат : Внутренние WAV-операции
Формат сэмплов : 44.100 Гц; 16 бит; стерео

TOC извлечённого CD

Трек | Старт | Длительность | Начальный сектор | Конечный сектор
———————————————————————
1 | 0:00.00 | 3:36.38 | 0 | 16237
2 | 3:36.38 | 4:10.47 | 16238 | 35034
3 | 7:47.10 | 4:13.15 | 35035 | 54024
4 | 12:00.25 | 4:14.51 | 54025 | 73125
5 | 16:15.01 | 4:35.41 | 73126 | 93791
6 | 20:50.42 | 3:34.11 | 93792 | 109852
7 | 24:24.53 | 3:57.63 | 109853 | 127690
8 | 28:22.41 | 4:41.41 | 127691 | 148806
9 | 33:04.07 | 4:05.25 | 148807 | 167206
10 | 37:09.32 | 4:00.31 | 167207 | 185237
11 | 41:09.63 | 3:21.57 | 185238 | 200369
12 | 44:31.45 | 3:10.52 | 200370 | 214671
13 | 47:42.22 | 3:55.43 | 214672 | 232339
14 | 51:37.65 | 4:45.36 | 232340 | 253750
15 | 56:23.26 | 4:08.25 | 253751 | 272375
16 | 60:31.51 | 3:25.45 | 272376 | 287795
17 | 63:57.21 | 4:22.07 | 287796 | 307452

Характеристики диапазона извлечения и сообщения об ошибках

Выбранный диапазон

Имя файла D:\Temp\Nazareth – 1980 – Malice In Wonderland [2002 Eagle Records, EAMCD136].wav

Пиковый уровень 99.5 %
Скорость извлечения 4.8 X
Качество диапазона 100.0 %
CRC теста 24D24915
CRC копии 24D24915
Копирование… OK

Ошибок не произошло

AccurateRip: сводка

Трек 1 : извлечено точно (доверие 7) [DE979DC3] (AR v2)
Трек 2 : извлечено точно (доверие 7) [3A65EF55] (AR v2)
Трек 3 : извлечено точно (доверие 6) [66D2D331] (AR v2)
Трек 4 : извлечено точно (доверие 6) [2D5E8013] (AR v2)
Трек 5 : извлечено точно (доверие 6) [81513B6A] (AR v2)
Трек 6 : извлечено точно (доверие 7) [73BC2DC1] (AR v2)
Трек 7 : извлечено точно (доверие 7) [68346E50] (AR v2)
Трек 8 : извлечено точно (доверие 6) [60B0F2A3] (AR v2)
Трек 9 : извлечено точно (доверие 6) [5BFD0F30] (AR v2)
Трек 10 : извлечено точно (доверие 7) [7B3148A7] (AR v2)
Трек 11 : извлечено точно (доверие 5) [0553648C] (AR v2)
Трек 12 : извлечено точно (доверие 5) [0176B868] (AR v2)
Трек 13 : извлечено точно (доверие 5) [6B04F67F] (AR v2)
Трек 14 : извлечено точно (доверие 5) [75451421] (AR v2)
Трек 15 : извлечено точно (доверие 5) [BCC35384] (AR v2)
Трек 16 : извлечено точно (доверие 5) [C760E365] (AR v2)
Трек 17 : извлечено точно (доверие 5) [85E5873F] (AR v2)

Все треки извлечены точно

Конец отчёта

==== Контрольная сумма отчёта 69069EF263799D17B99D8DA1DC3F1C0603DE0F560427843DF57B8F0240BA2B98 ====

REM GENRE “Classic Rock”
REM DATE 1980
REM DISCID 0C100311
REM COMMENT “ExactAudioCopy v1.1”
PERFORMER “Nazareth”
TITLE “Malice In Wonderland”
FILE “Nazareth – 1980 – Malice In Wonderland [2002 Eagle Records, EAMCD136].flac” WAVE
TRACK 01 AUDIO
TITLE “Holiday”
PERFORMER “Nazareth”
INDEX 01 00:00:00
TRACK 02 AUDIO
TITLE “Showdown At The Border”
PERFORMER “Nazareth”
INDEX 01 03:36:38
TRACK 03 AUDIO
TITLE “Talkin’ To One Of The Boys”
PERFORMER “Nazareth”
INDEX 00 07:46:05
INDEX 01 07:47:10
TRACK 04 AUDIO
TITLE “Heart’s Grown Cold”
PERFORMER “Nazareth”
INDEX 00 11:59:23
INDEX 01 12:00:25
TRACK 05 AUDIO
TITLE “Fast Cars”
PERFORMER “Nazareth”
INDEX 00 16:14:22
INDEX 01 16:15:01
TRACK 06 AUDIO
TITLE “Big Boy”
PERFORMER “Nazareth”
INDEX 00 20:49:17
INDEX 01 20:50:42
TRACK 07 AUDIO
TITLE “Talkin’ ’bout Love”
PERFORMER “Nazareth”
INDEX 01 24:24:53
TRACK 08 AUDIO
TITLE “Fallen Angel”
PERFORMER “Nazareth”
INDEX 00 28:21:43
INDEX 01 28:22:41
TRACK 09 AUDIO
TITLE “Ship Of Dreams”
PERFORMER “Nazareth”
INDEX 01 33:04:07
TRACK 10 AUDIO
TITLE “Turning A New Leaf”
PERFORMER “Nazareth”
INDEX 01 37:09:32
TRACK 11 AUDIO
TITLE “Holiday [*][7” edit]”
PERFORMER “Nazareth”
INDEX 00 41:05:29
INDEX 01 41:09:63
TRACK 12 AUDIO
TITLE “Ship Of Dreams [*][7” edit]”
PERFORMER “Nazareth”
INDEX 00 44:29:13
INDEX 01 44:31:45
TRACK 13 AUDIO
TITLE “Heart’s Grown Cold [*][live 7′ EP version]”
PERFORMER “Nazareth”
INDEX 00 47:38:53
INDEX 01 47:42:22
TRACK 14 AUDIO
TITLE “Talkin’ To One Of The Boys [*][live 7′ EP version]”
PERFORMER “Nazareth”
INDEX 01 51:37:65
TRACK 15 AUDIO
TITLE “Showdown At The Border [*][live]”
PERFORMER “Nazareth”
INDEX 01 56:23:26
TRACK 16 AUDIO
TITLE “Holiday [*][live]”
PERFORMER “Nazareth”
INDEX 00 60:30:53
INDEX 01 60:31:51
TRACK 17 AUDIO
TITLE “Heart’s Grown Cold [*][live]”
PERFORMER “Nazareth”
INDEX 00 63:56:02
INDEX 01 63:57:21


Leave a Reply

Your email address will not be published. Required fields are marked *

This site uses Akismet to reduce spam. Learn how your comment data is processed.