Nazareth – Malice In Wonderland (Reissue)




[Total: 0    Average: 0/5]

Artist: Nazareth
Year: 1980/1990
Genre: Rock
Notes: Discogs
Add. Notes: Reissue
Cover incl.: Yes
Encoder: FLAC
Bitrate: ~900 kBit/s (44.1 kHz/16 Bit/s)
Log & Cue incl.: Yes
Size: 337,54 MB
Password: “slam” (without ” “)


All Downloads/Hosters are compatible

Download 1
Share-online.biz
KatFile.com
Rapidgator.net
Mexa.sh
Download 2
Share-online.biz
KatFile.com
Rapidgator.net
Mexa.sh

Tracklist:

1. Holiday
2. Showdown At The Border
3. Talkin' To One Of The Boys
4. Heart's Grown Cold
5. Fast Cars
6. Big Boy
7. Talkin' About Love
8. Fallen Angel
9. Ship Of Dreams
10. Turning A New Leaf

EAC-Log, CUE-Sheed & NFO:

Click to open spoiler
Exact Audio Copy V1.0 beta 3 from 29. August 2011

EAC extraction logfile from 10. March 2014, 23:39

Nazareth / Malice In Wonderland

Used drive : SONY BD RW BDX-S600U Adapter: 2 ID: 1

Read mode : Secure
Utilize accurate stream : Yes
Defeat audio cache : Yes
Make use of C2 pointers : No

Read offset correction : 48
Overread into Lead-In and Lead-Out : No
Fill up missing offset samples with silence : Yes
Delete leading and trailing silent blocks : No
Null samples used in CRC calculations : Yes
Used interface : Native Win32 interface for Win NT & 2000

Used output format : User Defined Encoder
Selected bitrate : 128 kBit/s
Quality : High
Add ID3 tag : No
Command line compressor : C:\Program Files (x86)\Exact Audio Copy\Flac\flac.exe
Additional command line options : -V -8 -T “Date=%year%” -T “Genre=%genre%” %source%

TOC of the extracted CD

Track | Start | Length | Start sector | End sector
———————————————————
1 | 0:00.32 | 3:39.60 | 32 | 16516
2 | 3:40.17 | 4:11.53 | 16517 | 35394
3 | 7:51.70 | 4:13.05 | 35395 | 54374
4 | 12:05.00 | 4:14.50 | 54375 | 73474
5 | 16:19.50 | 4:37.57 | 73475 | 94306
6 | 20:57.32 | 3:38.45 | 94307 | 110701
7 | 24:36.02 | 3:59.15 | 110702 | 128641
8 | 28:35.17 | 4:44.25 | 128642 | 149966
9 | 33:19.42 | 4:09.10 | 149967 | 168651
10 | 37:28.52 | 3:53.00 | 168652 | 186126

Range status and errors

Selected range

Filename D:\Nazareth discography\1980. Nazareth – Malice In Wonderland\1980. Nazareth – Malice In Wonderland (Castle Com., CLACD 181, UK)\Nazareth – Malice In Wonderland.wav

Peak level 100.0 %
Extraction speed 6.3 X
Range quality 99.9 %
Test CRC 9F8CB210
Copy CRC 9F8CB210
Copy OK

No errors occurred

AccurateRip summary

Track 1 accurately ripped (confidence 7) [9CFB85B5] (AR v2)
Track 2 accurately ripped (confidence 7) [6A5E4A1B] (AR v2)
Track 3 accurately ripped (confidence 7) [04960DE3] (AR v2)
Track 4 accurately ripped (confidence 7) [F33E321F] (AR v2)
Track 5 accurately ripped (confidence 7) [389BCE9D] (AR v2)
Track 6 accurately ripped (confidence 7) [1DA7B663] (AR v2)
Track 7 accurately ripped (confidence 7) [E52ACE8E] (AR v2)
Track 8 accurately ripped (confidence 7) [9A03FD54] (AR v2)
Track 9 accurately ripped (confidence 7) [D549747F] (AR v2)
Track 10 accurately ripped (confidence 7) [7E5EEF5F] (AR v2)

All tracks accurately ripped

End of status report

—- CUETools DB Plugin V2.1.4

[CTDB TOCID: eevH0Z3VQcKIs17ivTkvlWtzxvU-] found
Submit result: eevH0Z3VQcKIs17ivTkvlWtzxvU- has been confirmed
Track | CTDB Status
1 | (2/2) Accurately ripped
2 | (2/2) Accurately ripped
3 | (2/2) Accurately ripped
4 | (2/2) Accurately ripped
5 | (2/2) Accurately ripped
6 | (2/2) Accurately ripped
7 | (2/2) Accurately ripped
8 | (2/2) Accurately ripped
9 | (2/2) Accurately ripped
10 | (1/2) Accurately ripped, or (1/2) differs in 14804 samples @02:29:61-02:29:73

==== Log checksum 74224EC957A2F32637ECA23DD3173DC01379ED8509A9414D953CECEDE56B68D3 ====

REM GENRE “Hard Rock”
REM DATE 1980
REM DISCID 7909B10A
REM COMMENT “ExactAudioCopy v1.0b3”
CATALOG 0000000000000
PERFORMER “Nazareth”
TITLE “Malice In Wonderland”
FILE “Nazareth – Malice In Wonderland.flac” WAVE
TRACK 01 AUDIO
TITLE “Holiday”
PERFORMER “Nazareth”
INDEX 00 00:00:00
INDEX 01 00:00:32
TRACK 02 AUDIO
TITLE “Showdown At The Border”
PERFORMER “Nazareth”
INDEX 00 03:38:01
INDEX 01 03:40:17
TRACK 03 AUDIO
TITLE “Talkin. To One Of The Boys”
PERFORMER “Nazareth”
INDEX 00 07:50:17
INDEX 01 07:51:70
TRACK 04 AUDIO
TITLE “Heart.s Grown Cold”
PERFORMER “Nazareth”
INDEX 00 12:03:57
INDEX 01 12:05:00
TRACK 05 AUDIO
TITLE “Fast Cars”
PERFORMER “Nazareth”
INDEX 00 16:17:40
INDEX 01 16:19:50
TRACK 06 AUDIO
TITLE “Big Boy”
PERFORMER “Nazareth”
INDEX 00 20:55:00
INDEX 01 20:57:32
TRACK 07 AUDIO
TITLE “Talkin. `Bout Love”
PERFORMER “Nazareth”
INDEX 00 24:33:40
INDEX 01 24:36:02
TRACK 08 AUDIO
TITLE “Fallen Angel”
PERFORMER “Nazareth”
INDEX 00 28:33:22
INDEX 01 28:35:17
TRACK 09 AUDIO
TITLE “Ship Of Dreams”
PERFORMER “Nazareth”
INDEX 00 33:17:12
INDEX 01 33:19:42
TRACK 10 AUDIO
TITLE “Turning A New Leaf”
PERFORMER “Nazareth”
INDEX 00 37:25:37
INDEX 01 37:28:52


Spread the Download

Leave a Reply

Your email address will not be published. Required fields are marked *

Enter the text from the image below
 

This site uses Akismet to reduce spam. Learn how your comment data is processed.