Nazareth – Loud ‘N’ Proud (Remastered)




Artist: Nazareth
Year: 1973/2001
Genre: Rock
Notes: Discogs
Add. Notes: Remastered
Cover incl.: Yes
Encoder: FLAC
Bitrate: ~900 kBit/s (44.1 kHz/16 Bit/s)
Log & Cue incl.: Yes
Size: 482,6 MB
Password: “slam” (without ” “)


All Downloads/Hosters are compatible

Download 1
Turbobit.net
KatFile.com
Rapidgator.net
Download 2
Turbobit.net
KatFile.com
Rapidgator.net

Tracklist:

1. Go Down Fighting
2. Not Faking It
3. Turn On Your Receiver
4. Teenage Nervous Breakdown
5. Free Wheeler
6. This Flight Tonight
7. Child In The Sun
8. The Ballad Of Hollis Brown
Bonus Tracks
9. This Flight Tonight (US Version)
10. Go Down Fighting (US Version)
11. The Ballad Of Hollis Brown (Edited Version)
12. Free Wheeler (Edited Version)

EAC-Log, CUE-Sheed & NFO:

Click to open spoiler
Exact Audio Copy V1.1 from 23. June 2015

Отчёт EAC об извлечении, выполненном 17. августа 2016, 10:44

Nazareth / Loud ‘n’ Proud

Дисковод: TSSTcorpBDDVDW SE-506BB Adapter: 1 ID: 1

Режим чтения : Достоверность
Использование точного потока : Да
Отключение кэша аудио : Да
Использование указателей C2 : Нет

Коррекция смещения при чтении : 6
Способность читать области Lead-in и Lead-out : Нет
Заполнение пропущенных сэмплов тишиной : Да
Удаление блоков с тишиной в начале и конце : Нет
При вычислениях CRC использовались нулевые сэмплы : Да
Интерфейс : Встроенный Win32-интерфейс для Win NT/2000

Выходной формат : Внутренние WAV-операции
Формат сэмплов : 44.100 Гц; 16 бит; стерео

TOC извлечённого CD

Трек | Старт | Длительность | Начальный сектор | Конечный сектор
———————————————————————
1 | 0:00.00 | 3:07.10 | 0 | 14034
2 | 3:07.10 | 4:01.22 | 14035 | 32131
3 | 7:08.32 | 3:19.50 | 32132 | 47106
4 | 10:28.07 | 3:43.55 | 47107 | 63886
5 | 14:11.62 | 5:31.68 | 63887 | 88779
6 | 19:43.55 | 3:24.27 | 88780 | 104106
7 | 23:08.07 | 4:51.63 | 104107 | 125994
8 | 27:59.70 | 9:14.08 | 125995 | 167552
9 | 37:14.03 | 3:24.42 | 167553 | 182894
10 | 40:38.45 | 3:05.39 | 182895 | 196808
11 | 43:44.09 | 5:09.42 | 196809 | 220025
12 | 48:53.51 | 4:37.47 | 220026 | 240847

Характеристики диапазона извлечения и сообщения об ошибках

Выбранный диапазон

Имя файла D:\Temp\Nazareth – 1974 – Loud ‘n’ Proud [2001 Eagle Records, EAMCD133].wav

Пиковый уровень 100.0 %
Скорость извлечения 4.6 X
Качество диапазона 100.0 %
CRC теста EAA28FD2
CRC копии EAA28FD2
Копирование… OK

Ошибок не произошло

AccurateRip: сводка

Трек 1 : извлечено точно (доверие 14) [803CADD6] (AR v2)
Трек 2 : извлечено точно (доверие 13) [53ED6AB6] (AR v2)
Трек 3 : извлечено точно (доверие 14) [D54CA65B] (AR v2)
Трек 4 : извлечено точно (доверие 14) [06C6628B] (AR v2)
Трек 5 : извлечено точно (доверие 14) [257D5511] (AR v2)
Трек 6 : извлечено точно (доверие 14) [14252D0A] (AR v2)
Трек 7 : извлечено точно (доверие 14) [73756979] (AR v2)
Трек 8 : извлечено точно (доверие 13) [9BC310EB] (AR v2)
Трек 9 : извлечено точно (доверие 11) [3F090181] (AR v2)
Трек 10 : извлечено точно (доверие 11) [57DA9D98] (AR v2)
Трек 11 : извлечено точно (доверие 11) [640686A6] (AR v2)
Трек 12 : извлечено точно (доверие 10) [9E68E611] (AR v2)

Все треки извлечены точно

Конец отчёта

==== Контрольная сумма отчёта C94AA1804C00BB7815127E058FD6504B34B0A1A0EA522F4EC09B8818D0BCED78 ====

REM GENRE “Hard Rock”
REM DATE 1974
REM DISCID 9A0C8B0C
REM COMMENT “ExactAudioCopy v1.1”
PERFORMER “Nazareth”
TITLE “Loud ‘n’ Proud”
FILE “Nazareth – 1973 – Loud ‘n’ Proud [2001 Eagle Records, EAMCD133].flac” WAVE
TRACK 01 AUDIO
TITLE “Go Down Fighting”
PERFORMER “Nazareth”
INDEX 01 00:00:00
TRACK 02 AUDIO
TITLE “Not Faking It”
PERFORMER “Nazareth”
INDEX 01 03:07:10
TRACK 03 AUDIO
TITLE “Turn On Your Receiver”
PERFORMER “Nazareth”
INDEX 01 07:08:32
TRACK 04 AUDIO
TITLE “Teenage Nervous Breakdown”
PERFORMER “Nazareth”
INDEX 01 10:28:07
TRACK 05 AUDIO
TITLE “Free Wheeler”
PERFORMER “Nazareth”
INDEX 01 14:11:62
TRACK 06 AUDIO
TITLE “This Flight Tonight”
PERFORMER “Nazareth”
INDEX 01 19:43:55
TRACK 07 AUDIO
TITLE “Child In The Sun”
PERFORMER “Nazareth”
INDEX 01 23:08:07
TRACK 08 AUDIO
TITLE “The Ballad Of Hollis Brown”
PERFORMER “Nazareth”
INDEX 01 27:59:70
TRACK 09 AUDIO
TITLE “This Flight Tonight [*][US version]”
PERFORMER “Nazareth”
INDEX 00 37:09:34
INDEX 01 37:14:03
TRACK 10 AUDIO
TITLE “Go Down Fighting [*][US version]”
PERFORMER “Nazareth”
INDEX 00 40:36:43
INDEX 01 40:38:45
TRACK 11 AUDIO
TITLE “The Ballad Of Hollis Brown [*][edited version]”
PERFORMER “Nazareth”
INDEX 00 43:42:04
INDEX 01 43:44:09
TRACK 12 AUDIO
TITLE “Free Wheeler [*][edited version]”
PERFORMER “Nazareth”
INDEX 00 48:51:72
INDEX 01 48:53:51


Leave a Reply

Your email address will not be published. Required fields are marked *

This site uses Akismet to reduce spam. Learn how your comment data is processed.