Nazareth – Loud ‘N’ Proud (Reissue)




[Total: 0    Average: 0/5]

Artist: Nazareth
Year: 1973/1990
Genre: Rock
Notes: Discogs
Add. Notes: Reissue
Cover incl.: Yes
Encoder: FLAC
Bitrate: ~800 kBit/s (44.1 kHz/16 Bit/s)
Log & Cue incl.: Yes
Size: 286,4 MB
Password: “slam” (without ” “)


All Downloads/Hosters are compatible

Download 1
KatFile.com
Turbobit.net
FileFactory.com
Rapidgator.net
Download 2
KatFile.com
Turbobit.net
FileFactory.com
Rapidgator.net

Tracklist:

1 Go Down Fighting 3:04
2 Not Faking It 3:58
3 Turn On Your Receiver 3:17
4 Teenage Nervous Breakdown 3:41
5 Freewheeler 5:29
6 This Flight Tonight 3:24
7 Child In The Sun 4:55
8 The Ballad Of Hollis Brown 9:13

EAC-Log, CUE-Sheed & NFO:

Click to open spoiler
Exact Audio Copy V1.0 beta 3 from 29. August 2011

EAC extraction logfile from 4. August 2014, 14:14

Nazareth / Loud ‘N’ Proud

Used drive : SONY BD RW BDX-S600U Adapter: 2 ID: 1

Read mode : Secure
Utilize accurate stream : Yes
Defeat audio cache : Yes
Make use of C2 pointers : No

Read offset correction : 48
Overread into Lead-In and Lead-Out : No
Fill up missing offset samples with silence : Yes
Delete leading and trailing silent blocks : No
Null samples used in CRC calculations : Yes
Used interface : Native Win32 interface for Win NT & 2000

Used output format : User Defined Encoder
Selected bitrate : 128 kBit/s
Quality : High
Add ID3 tag : No
Command line compressor : C:\Program Files (x86)\Exact Audio Copy\Flac\flac.exe
Additional command line options : -V -8 -T “Date=%year%” -T “Genre=%genre%” %source%

TOC of the extracted CD

Track | Start | Length | Start sector | End sector
———————————————————
1 | 0:00.33 | 3:09.55 | 33 | 14262
2 | 3:10.13 | 4:03.22 | 14263 | 32509
3 | 7:13.35 | 3:22.25 | 32510 | 47684
4 | 10:35.60 | 3:46.23 | 47685 | 64657
5 | 14:22.08 | 5:33.60 | 64658 | 89692
6 | 19:55.68 | 3:27.22 | 89693 | 105239
7 | 23:23.15 | 4:54.48 | 105240 | 127337
8 | 28:17.63 | 9:13.12 | 127338 | 168824

Range status and errors

Selected range

Filename D:\Nazareth discography\Studio\1973. Nazareth – Loud ‘N’ Proud\1973. Nazareth – Loud ‘N’ Proud (BR Music BO 7032-2,Holland)\Nazareth – Loud ‘N’ Proud.wav

Peak level 99.2 %
Extraction speed 6.1 X
Range quality 100.0 %
Test CRC FC683CA9
Copy CRC FC683CA9
Copy OK

No errors occurred

AccurateRip summary

Track 1 accurately ripped (confidence 2) [2BA47E06] (AR v1)
Track 2 accurately ripped (confidence 2) [968CDC14] (AR v1)
Track 3 accurately ripped (confidence 2) [76C677F1] (AR v1)
Track 4 accurately ripped (confidence 2) [0A2A3E14] (AR v1)
Track 5 accurately ripped (confidence 2) [C32E9491] (AR v1)
Track 6 accurately ripped (confidence 2) [55AA1C1F] (AR v1)
Track 7 accurately ripped (confidence 2) [32C3F0DF] (AR v1)
Track 8 accurately ripped (confidence 2) [9923AEF6] (AR v1)

All tracks accurately ripped

End of status report

—- CUETools DB Plugin V2.1.4

[CTDB TOCID: qLTBRQaNaAde72nsO6sFkaiJLks-] found
Submit result: qLTBRQaNaAde72nsO6sFkaiJLks- has been confirmed
Track | CTDB Status
1 | (1/1) Accurately ripped
2 | (1/1) Accurately ripped
3 | (1/1) Accurately ripped
4 | (1/1) Accurately ripped
5 | (1/1) Accurately ripped
6 | (1/1) Accurately ripped
7 | (1/1) Accurately ripped
8 | (1/1) Accurately ripped

==== Log checksum 3B769510C359FDAD1AC3ADE8040E69EC4B7F55A9DE12DE8199B893BBC9E76CC7 ====

REM GENRE Rock
REM DATE 1973
REM DISCID 7108CB08
REM COMMENT “ExactAudioCopy v1.0b3”
CATALOG 0000000000000
PERFORMER “Nazareth”
TITLE “Loud ‘N’ Proud”
FILE “Nazareth – Loud ‘N’ Proud.flac” WAVE
TRACK 01 AUDIO
TITLE “Go Down Fighting”
PERFORMER “Nazareth”
INDEX 00 00:00:00
INDEX 01 00:00:33
TRACK 02 AUDIO
TITLE “Not Faking It”
PERFORMER “Nazareth”
INDEX 00 03:07:08
INDEX 01 03:10:13
TRACK 03 AUDIO
TITLE “Turn On Your Receiver”
PERFORMER “Nazareth”
INDEX 00 07:10:48
INDEX 01 07:13:35
TRACK 04 AUDIO
TITLE “Teenage Nervous Breakdown”
PERFORMER “Nazareth”
INDEX 00 10:32:73
INDEX 01 10:35:60
TRACK 05 AUDIO
TITLE “Free Wheeler”
PERFORMER “Nazareth”
INDEX 00 14:19:03
INDEX 01 14:22:08
TRACK 06 AUDIO
TITLE “This Flight Tonight”
PERFORMER “Nazareth”
INDEX 00 19:53:60
INDEX 01 19:55:68
TRACK 07 AUDIO
TITLE “Child In The Sun”
PERFORMER “Nazareth”
INDEX 00 23:20:68
INDEX 01 23:23:15
TRACK 08 AUDIO
TITLE “The Ballad Of Hollis Brown”
PERFORMER “Nazareth”
INDEX 00 28:15:23
INDEX 01 28:17:63


Spread the Download

Leave a Reply

Your email address will not be published. Required fields are marked *

Enter the text from the image below
 

This site uses Akismet to reduce spam. Learn how your comment data is processed.