Nazareth – Loud ‘N’ Proud (Reissue)




Artist: Nazareth
Year: 1973/1989
Genre: Rock
Notes: Discogs
Add. Notes: Reissue
Cover incl.: Yes
Encoder: FLAC
Bitrate: ~800 kBit/s (44.1 kHz/16 Bit/s)
Log & Cue incl.: Yes/Yes
Size: 331,2 MB
Password: “slam” (without ” “)


All Downloads/Hosters are compatible

Download 1
KatFile.com
Turbobit.net
FileFactory.com
Rapidgator.net
Download 2
KatFile.com
Turbobit.net
FileFactory.com
Rapidgator.net

Tracklist:

1 Go Down Fighting 
2 Not Faking It 
3 Turn On Your Receiver 
4 Teenage Nervous Breakdown 
5 Free Wheeler 
6 This Flight Tonight 
7 Child In The Sun 
8 The Ballad Of Hollis Brown

EAC-Log, CUE-Sheed & NFO:

Click to open spoiler
Exact Audio Copy V1.0 beta 3 from 29. August 2011

EAC extraction logfile from 2. December 2013, 14:26

Nazareth / Loud ‘N’ Proud

Used drive : SONY BD RW BDX-S600U Adapter: 2 ID: 0

Read mode : Secure
Utilize accurate stream : Yes
Defeat audio cache : Yes
Make use of C2 pointers : No

Read offset correction : 48
Overread into Lead-In and Lead-Out : No
Fill up missing offset samples with silence : Yes
Delete leading and trailing silent blocks : No
Null samples used in CRC calculations : Yes
Used interface : Native Win32 interface for Win NT & 2000

Used output format : User Defined Encoder
Selected bitrate : 128 kBit/s
Quality : High
Add ID3 tag : No
Command line compressor : C:\Program Files (x86)\Exact Audio Copy\Flac\flac.exe
Additional command line options : -V -8 -T “Date=%year%” -T “Genre=%genre%” %source%

TOC of the extracted CD

Track | Start | Length | Start sector | End sector
———————————————————
1 | 0:00.32 | 3:09.73 | 32 | 14279
2 | 3:10.30 | 4:03.47 | 14280 | 32551
3 | 7:14.02 | 3:22.18 | 32552 | 47719
4 | 10:36.20 | 3:46.15 | 47720 | 64684
5 | 14:22.35 | 5:33.52 | 64685 | 89711
6 | 19:56.12 | 3:27.40 | 89712 | 105276
7 | 23:23.52 | 4:54.48 | 105277 | 127374
8 | 28:18.25 | 9:12.05 | 127375 | 168779

Range status and errors

Selected range

Filename D:\Nazareth discography\1973. Nazareth – Loud ‘N’ Proud\1973. Nazareth – Loud ‘N’ Proud (Castle Com.,CLACD 174,France)\Nazareth – Loud ‘N’ Proud.wav

Peak level 100.0 %
Extraction speed 6.1 X
Range quality 100.0 %
Test CRC F7EC57B5
Copy CRC F7EC57B5
Copy OK

No errors occurred

AccurateRip summary

Track 1 accurately ripped (confidence 2) [14A40932] (AR v2)
Track 2 accurately ripped (confidence 2) [01C39281] (AR v2)
Track 3 accurately ripped (confidence 2) [E1A87FEB] (AR v2)
Track 4 accurately ripped (confidence 2) [8709A4D8] (AR v2)
Track 5 accurately ripped (confidence 2) [FE63F767] (AR v2)
Track 6 accurately ripped (confidence 2) [A8E6486C] (AR v2)
Track 7 accurately ripped (confidence 4) [A1C3D7FE] (AR v1)
Track 8 accurately ripped (confidence 2) [302EA49E] (AR v2)

All tracks accurately ripped

End of status report

—- CUETools DB Plugin V2.1.3

[CTDB TOCID: JgmHZbmj_KmipmTCg2lsXXba_yA-] found, Submit result: discs with pregaps not supported in this protocol version
[43f9cd83] (18/18) Differs in 27327 samples @00:00:02-00:00:41
You can use CUETools to repair this rip.

==== Log checksum FDD940CDD92980B5164CC22F4EBA6191610C88F181353C85A726A496AF9998AB ====

REM GENRE Rock
REM DATE 1973
REM DISCID 6308CA08
REM COMMENT “ExactAudioCopy v1.0b3”
CATALOG 0000000000000
PERFORMER “Nazareth”
TITLE “Loud ‘N’ Proud”
FILE “Nazareth – Loud ‘N’ Proud.flac” WAVE
TRACK 01 AUDIO
TITLE “Go Down Fighting”
PERFORMER “Nazareth”
INDEX 00 00:00:00
INDEX 01 00:00:32
TRACK 02 AUDIO
TITLE “Not Faking It”
PERFORMER “Nazareth”
INDEX 00 03:07:15
INDEX 01 03:10:30
TRACK 03 AUDIO
TITLE “Turn On Your Receiver”
PERFORMER “Nazareth”
INDEX 00 07:11:00
INDEX 01 07:14:02
TRACK 04 AUDIO
TITLE “Teenage Nervous Breakdown”
PERFORMER “Nazareth”
INDEX 00 10:33:30
INDEX 01 10:36:20
TRACK 05 AUDIO
TITLE “Free Wheeler”
PERFORMER “Nazareth”
INDEX 00 14:19:45
INDEX 01 14:22:35
TRACK 06 AUDIO
TITLE “This Flight Tonight”
PERFORMER “Nazareth”
INDEX 00 19:54:40
INDEX 01 19:56:12
TRACK 07 AUDIO
TITLE “Child In The Sun”
PERFORMER “Nazareth”
INDEX 00 23:20:67
INDEX 01 23:23:52
TRACK 08 AUDIO
TITLE “The Ballad Of Hollis Brown”
PERFORMER “Nazareth”
INDEX 00 28:14:57
INDEX 01 28:18:25


Leave a Reply

Your email address will not be published. Required fields are marked *

Enter the text from the image below
 

This site uses Akismet to reduce spam. Learn how your comment data is processed.