Nazareth – Hair Of The Dog




No Cover available

Artist: Nazareth
Year: 1975/1997
Genre: Rock
Notes: Discogs
Add. Notes:
Watch Songs on: YouTube
Cover incl.: Yes
Encoder: FLAC
Bitrate: ~800 kBit/s (44.1 kHz/16 Bit/s)
Log & Cue incl.: Yes/Yes
Size: 459,22 MB
Password: “slam” (without ” “)


All Downloads/Hosters are compatible

Download 1
KatFile.com
Turbobit.net
Rapidgator.net
FileFactory.com
Download 2
KatFile.com
Turbobit.net
Rapidgator.net
FileFactory.com

Tracklist:

1 Hair Of The Dog 
2 Miss Misery 
3 Guilty 
4 Changin' Times 
5 (a) Beggars Day/ (b) Rose In Heather 
6 Whiskey Drinkin' Woman 
7 Please Don't Judas Me 

Bonus Tracks
8 Love Hurts 
9 Down 
10 Railroad Boy 
11 Hair Of The Dog

EAC-Log, CUE-Sheed & NFO:

Click to open spoiler
Exact Audio Copy V1.0 beta 3 from 29. August 2011

EAC extraction logfile from 16. August 2016, 20:58

Nazareth / Hair Of The Dog

Used drive : PLEXTOR DVDR PX-L890SA Adapter: 5 ID: 1

Read mode : Secure
Utilize accurate stream : Yes
Defeat audio cache : Yes
Make use of C2 pointers : No

Read offset correction : 6
Overread into Lead-In and Lead-Out : No
Fill up missing offset samples with silence : Yes
Delete leading and trailing silent blocks : No
Null samples used in CRC calculations : Yes
Used interface : Native Win32 interface for Win NT & 2000

Used output format : User Defined Encoder
Selected bitrate : 768 kBit/s
Quality : High
Add ID3 tag : No
Command line compressor : C:\Program Files (x86)\Exact Audio Copy\Flac\flac.exe
Additional command line options : -V -8 -T “Date=%year%” -T “Genre=%genre%” %source%

TOC of the extracted CD

Track | Start | Length | Start sector | End sector
———————————————————
1 | 0:00.00 | 4:10.60 | 0 | 18809
2 | 4:10.60 | 4:42.05 | 18810 | 39964
3 | 8:52.65 | 3:38.67 | 39965 | 56381
4 | 12:31.57 | 5:59.18 | 56382 | 83324
5 | 18:31.00 | 6:30.00 | 83325 | 112574
6 | 25:01.00 | 5:29.20 | 112575 | 137269
7 | 30:30.20 | 9:48.22 | 137270 | 181391
8 | 40:18.42 | 3:51.55 | 181392 | 198771
9 | 44:10.22 | 3:54.55 | 198772 | 216376
10 | 48:05.02 | 4:07.20 | 216377 | 234921
11 | 52:12.22 | 3:21.25 | 234922 | 250021

Range status and errors

Selected range

Filename H:\MUSIC\1975. Nazareth – Hair Of The Dog (Castle EMCD 550, UK)\Nazareth – Hair Of The Dog.wav

Peak level 97.6 %
Extraction speed 9.0 X
Range quality 99.9 %
Test CRC 862D06C3
Copy CRC 862D06C3
Copy OK

No errors occurred

AccurateRip summary

Track 1 accurately ripped (confidence 8) [B34808E5] (AR v2)
Track 2 accurately ripped (confidence 8) [6E7D67F7] (AR v2)
Track 3 accurately ripped (confidence 8) [A29D4F73] (AR v2)
Track 4 accurately ripped (confidence 8) [0B7D31DE] (AR v2)
Track 5 accurately ripped (confidence 8) [B87D1EC7] (AR v2)
Track 6 accurately ripped (confidence 8) [5F1057FE] (AR v2)
Track 7 accurately ripped (confidence 8) [37E1CAFA] (AR v2)
Track 8 accurately ripped (confidence 8) [DA67E153] (AR v2)
Track 9 accurately ripped (confidence 8) [69C236E6] (AR v2)
Track 10 accurately ripped (confidence 8) [8D9930F5] (AR v2)
Track 11 accurately ripped (confidence 7) [9852D0AA] (AR v2)

All tracks accurately ripped

End of status report

==== Log checksum C6C3C3CD87D05F86DE368CB58E2AFBFAE6D3F985DE3210F049E1C03C842F31C2 ====

REM GENRE “Hard Rock”
REM DATE 1975
REM DISCID 7E0D050B
REM COMMENT “ExactAudioCopy v1.0b3”
PERFORMER “Nazareth”
TITLE “Hair Of The Dog”
FILE “Nazareth – Hair Of The Dog.flac” WAVE
TRACK 01 AUDIO
TITLE “Hair Of The Dog”
PERFORMER “Nazareth”
INDEX 01 00:00:00
TRACK 02 AUDIO
TITLE “Miss Misery”
PERFORMER “Nazareth”
INDEX 01 04:10:60
TRACK 03 AUDIO
TITLE “Guilty”
PERFORMER “Nazareth”
INDEX 01 08:52:65
TRACK 04 AUDIO
TITLE “Changing’ Times”
PERFORMER “Nazareth”
INDEX 01 12:31:57
TRACK 05 AUDIO
TITLE “A. Beggar’s Day B. Rose In Heather”
PERFORMER “Nazareth”
INDEX 00 18:30:62
INDEX 01 18:31:00
TRACK 06 AUDIO
TITLE “Whiskey Drinkin’ Woman”
PERFORMER “Nazareth”
INDEX 00 25:00:50
INDEX 01 25:01:00
TRACK 07 AUDIO
TITLE “Please Don’t Judas Me”
PERFORMER “Nazareth”
INDEX 01 30:30:20
TRACK 08 AUDIO
TITLE “Love Hurts”
PERFORMER “Nazareth”
INDEX 00 40:15:42
INDEX 01 40:18:42
TRACK 09 AUDIO
TITLE “Down (B-Side To Love Hurts Single, Bonus Track)”
PERFORMER “Nazareth”
INDEX 00 44:08:72
INDEX 01 44:10:22
TRACK 10 AUDIO
TITLE “Railroad Boy (B-Side To Holy Roller, Bonus Track)”
PERFORMER “Nazareth”
INDEX 00 48:02:60
INDEX 01 48:05:02
TRACK 11 AUDIO
TITLE “Hair Of The Dog (Single Edit, Bonus Track)”
PERFORMER “Nazareth”
INDEX 00 52:10:22
INDEX 01 52:12:22


Leave a Reply

Your email address will not be published. Required fields are marked *

Enter the text from the image below
 

This site uses Akismet to reduce spam. Learn how your comment data is processed.