Nazareth – Hair Of The Dog (Remastered)




Artist: Nazareth
Year: 1975/2001
Genre: Rock
Notes: Discogs
Add. Notes: Remastered
Cover incl.: Yes
Encoder: FLAC
Bitrate: ~1000 kBit/s (44.1 kHz/16 Bit/s)
Log & Cue incl.: Yes
Size: 608,19 MB
Password: “slam” (without ” “)


All Downloads/Hosters are compatible

Download 1
Turbobit.net
KatFile.com
Rapidgator.net
Download 2
Turbobit.net
KatFile.com
Rapidgator.net

Tracklist:

01. Hair Of The Dog    [0:04:10.52]
02. Miss Misery    [0:04:42.14]
03. Guilty    [0:03:38.59]
04. Changin' Times    [0:05:59.16]
05. Beggar's Day / Rose In The Heather    [0:06:30.01]
06. Whiskey Drinkin' Woman    [0:05:29.18]
07. Please Don't Judas Me    [0:09:50.12]
08. Love Hurts    [0:03:51.53]
09. Down (B-Side to Love Hurts Single)    [0:03:54.31]
10. Holy Roller    [0:03:24.55]
11. Railroad Boy (B-Side to Holy Roller Single)    
[0:04:07.15]
12. Hair Of The Dog (single edit)    [0:03:21.26]
13. Holy Roller (alternate mix)    [0:04:16.43]

EAC-Log, CUE-Sheed & NFO:

Click to open spoiler
Exact Audio Copy V1.1 from 23. June 2015

Отчёт EAC об извлечении, выполненном 17. августа 2016, 12:21

Nazareth / Hair Of The Dog

Дисковод: TSSTcorpBDDVDW SE-506BB Adapter: 1 ID: 1

Режим чтения : Достоверность
Использование точного потока : Да
Отключение кэша аудио : Да
Использование указателей C2 : Нет

Коррекция смещения при чтении : 6
Способность читать области Lead-in и Lead-out : Нет
Заполнение пропущенных сэмплов тишиной : Да
Удаление блоков с тишиной в начале и конце : Нет
При вычислениях CRC использовались нулевые сэмплы : Да
Интерфейс : Встроенный Win32-интерфейс для Win NT/2000

Выходной формат : Внутренние WAV-операции
Формат сэмплов : 44.100 Гц; 16 бит; стерео

TOC извлечённого CD

Трек | Старт | Длительность | Начальный сектор | Конечный сектор
———————————————————————
1 | 0:00.00 | 4:10.52 | 0 | 18801
2 | 4:10.52 | 4:42.14 | 18802 | 39965
3 | 8:52.66 | 3:38.59 | 39966 | 56374
4 | 12:31.50 | 5:59.16 | 56375 | 83315
5 | 18:30.66 | 6:30.01 | 83316 | 112566
6 | 25:00.67 | 5:29.18 | 112567 | 137259
7 | 30:30.10 | 9:50.12 | 137260 | 181521
8 | 40:20.22 | 3:51.53 | 181522 | 198899
9 | 44:12.00 | 3:54.31 | 198900 | 216480
10 | 48:06.31 | 3:24.55 | 216481 | 231835
11 | 51:31.11 | 4:07.15 | 231836 | 250375
12 | 55:38.26 | 3:21.26 | 250376 | 265476
13 | 58:59.52 | 4:16.43 | 265477 | 284719

Характеристики диапазона извлечения и сообщения об ошибках

Выбранный диапазон

Имя файла D:\Temp\Nazareth – 1975 – Hair Of The Dog [2001 Eagle Records, EAMCD127].wav

Пиковый уровень 100.0 %
Скорость извлечения 4.8 X
Качество диапазона 100.0 %
CRC теста 2F66896A
CRC копии 2F66896A
Копирование… OK

Ошибок не произошло

AccurateRip: сводка

Трек 1 : извлечено точно (доверие 10) [1F59B277] (AR v2)
Трек 2 : извлечено точно (доверие 10) [80FAB4BA] (AR v2)
Трек 3 : извлечено точно (доверие 9) [875E2B2E] (AR v2)
Трек 4 : извлечено точно (доверие 10) [928FEDF2] (AR v2)
Трек 5 : извлечено точно (доверие 10) [50D7E714] (AR v2)
Трек 6 : извлечено точно (доверие 10) [ABE2D887] (AR v2)
Трек 7 : извлечено точно (доверие 10) [8D38981D] (AR v2)
Трек 8 : извлечено точно (доверие 9) [60BF67A6] (AR v2)
Трек 9 : извлечено точно (доверие 9) [1FBA07EB] (AR v2)
Трек 10 : извлечено точно (доверие 9) [A75C6BF3] (AR v2)
Трек 11 : извлечено точно (доверие 8) [DAE4B31B] (AR v2)
Трек 12 : извлечено точно (доверие 7) [F84323C9] (AR v2)
Трек 13 : извлечено точно (доверие 7) [EB035C38] (AR v2)

Все треки извлечены точно

Конец отчёта

==== Контрольная сумма отчёта FF030D85BCC0680196BACDB093AB39C1C27C6C606557EC8B3F5257F76C2065F2 ====

REM GENRE “Hard Rock”
REM DATE 1975
REM DISCID 9C0ED40D
REM COMMENT “ExactAudioCopy v1.1”
PERFORMER “Nazareth”
TITLE “Hair Of The Dog”
FILE “Nazareth – 1975 – Hair Of The Dog [2001 Eagle Records, EAMCD127].flac” WAVE
TRACK 01 AUDIO
TITLE “Hair Of The Dog”
PERFORMER “Nazareth”
INDEX 01 00:00:00
TRACK 02 AUDIO
TITLE “Miss Misery”
PERFORMER “Nazareth”
INDEX 00 04:10:32
INDEX 01 04:10:52
TRACK 03 AUDIO
TITLE “Guilty”
PERFORMER “Nazareth”
INDEX 00 08:52:45
INDEX 01 08:52:66
TRACK 04 AUDIO
TITLE “Changin’ Times”
PERFORMER “Nazareth”
INDEX 01 12:31:50
TRACK 05 AUDIO
TITLE “Beggar’s Day / Rose In The Heather”
PERFORMER “Nazareth”
INDEX 00 18:30:46
INDEX 01 18:30:66
INDEX 02 22:17:58
TRACK 06 AUDIO
TITLE “Whiskey Drinkin’ Woman”
PERFORMER “Nazareth”
INDEX 00 25:00:46
INDEX 01 25:00:67
TRACK 07 AUDIO
TITLE “Please Don’t Judas Me”
PERFORMER “Nazareth”
INDEX 00 30:29:64
INDEX 01 30:30:10
TRACK 08 AUDIO
TITLE “Love Hurts [*]”
PERFORMER “Nazareth”
INDEX 00 40:15:38
INDEX 01 40:20:22
TRACK 09 AUDIO
TITLE “Down [*][B-Side to ”Love Hurts” single]”
PERFORMER “Nazareth”
INDEX 00 44:10:65
INDEX 01 44:12:00
TRACK 10 AUDIO
TITLE “Holy Roller [*]”
PERFORMER “Nazareth”
INDEX 00 48:04:49
INDEX 01 48:06:31
TRACK 11 AUDIO
TITLE “Railroad Boy [*][B-Side to ”Holy Roller” single]”
PERFORMER “Nazareth”
INDEX 00 51:29:29
INDEX 01 51:31:11
TRACK 12 AUDIO
TITLE “Hair Of The Dog [*][single edit]”
PERFORMER “Nazareth”
INDEX 00 55:36:46
INDEX 01 55:38:26
TRACK 13 AUDIO
TITLE “Holy Roller [*][alternate mix]”
PERFORMER “Nazareth”
INDEX 00 58:57:70
INDEX 01 58:59:52


Leave a Reply

Your email address will not be published. Required fields are marked *

This site uses Akismet to reduce spam. Learn how your comment data is processed.