Nazareth – Hair Of The Dog (Remastered Deluxe Edition)




No Cover available

Artist: Nazareth
Year: 1975/2010
Genre: Rock
Notes: Discogs
Add. Notes: Remastered Deluxe Edition
Watch Songs on: YouTube
Cover incl.: Yes
Encoder: FLAC
Bitrate: ~1000 kBit/s (44.1 kHz/16 Bit/s)
Log & Cue incl.: Yes/Yes
Size: 659 MB
Password: “slam” (without ” “)


All Downloads/Hosters are compatible

Download 1
KatFile.com
Turbobit.net
FileFactory.com
Rapidgator.net
Download 2
KatFile.com
Turbobit.net
FileFactory.com
Rapidgator.net

Tracklist:

1 Hair Of The Dog 4:11
2 Miss Misery 4:43
3 Guilty 3:41
4 Changin' Times 6:00
5.1 Beggar's Day 3:48
5.2 Rose In The Heather 2:42
6 Whiskey Drinkin' Woman 5:31
7 Please Don't Judas Me 9:44

Bonus Tracks
8 Love Hurts 3:52
9 My White Bicycle 3:26
10 Holy Roller 3:25
11 Railroad Boy 4:07
12 Hair Of The Dog (BBC Live 
Recording) 3:47
13 Holy Roller (BBC Live Recording) 
4:22
14 Teenage Nervous Breakdown 
(BBC Live Recording) 
4:22
15 This Flight Tonight (BBC Live 
Recording) 3:38
16 Road Ladies (BBC Live Recording) 
7:03

EAC-Log, CUE-Sheed & NFO:

Click to open spoiler
Exact Audio Copy V1.0 beta 3 from 29. August 2011

EAC extraction logfile from 6. January 2013, 13:32

Nazareth / Hair Of The Dog (2010 Remaster)

Used drive : ATAPI iHAS124 B Adapter: 2 ID: 0

Read mode : Secure
Utilize accurate stream : Yes
Defeat audio cache : Yes
Make use of C2 pointers : No

Read offset correction : 6
Overread into Lead-In and Lead-Out : No
Fill up missing offset samples with silence : Yes
Delete leading and trailing silent blocks : No
Null samples used in CRC calculations : Yes
Used interface : Native Win32 interface for Win NT & 2000

Used output format : User Defined Encoder
Selected bitrate : 1024 kBit/s
Quality : High
Add ID3 tag : No
Command line compressor : C:\Program Files (x86)\Exact Audio Copy\FLAC\FLAC.EXE
Additional command line options : -8 -V -T “ARTIST=%artist%” -T “TITLE=%title%” -T “ALBUM=%albumtitle%” -T “DATE=%year%” -T “TRACKNUMBER=%tracknr%” -T “GENRE=%genre%” -T “PERFORMER=%albuminterpret%” -T “COMPOSER=%composer%” %haslyrics%–tag-from-file=LYRICS=”%lyricsfile%”%haslyrics% -T “ALBUMARTIST=%albumartist%” -T “DISCNUMBER=%cdnumber%” -T “TOTALDISCS=%totalcds%” -T “TOTALTRACKS=%numtracks%” -T “COMMENT=%comment%” %source% -o %dest%

TOC of the extracted CD

Track | Start | Length | Start sector | End sector
———————————————————
1 | 0:00.00 | 4:11.10 | 0 | 18834
2 | 4:11.10 | 4:43.18 | 18835 | 40077
3 | 8:54.28 | 3:40.49 | 40078 | 56626
4 | 12:35.02 | 5:59.47 | 56627 | 83598
5 | 18:34.49 | 6:30.19 | 83599 | 112867
6 | 25:04.68 | 5:30.30 | 112868 | 137647
7 | 30:35.23 | 9:44.12 | 137648 | 181459
8 | 40:19.35 | 3:52.09 | 181460 | 198868
9 | 44:11.44 | 3:25.68 | 198869 | 214311
10 | 47:37.37 | 3:24.56 | 214312 | 229667
11 | 51:02.18 | 4:06.51 | 229668 | 248168
12 | 55:08.69 | 3:47.23 | 248169 | 265216
13 | 58:56.17 | 4:22.25 | 265217 | 284891
14 | 63:18.42 | 4:21.47 | 284892 | 304513
15 | 67:40.14 | 3:37.46 | 304514 | 320834
16 | 71:17.60 | 7:02.56 | 320835 | 352540

Range status and errors

Selected range

Filename G:\CD\Nazareth – Hair Of The Dog (2010 Remaster).wav

Peak level 97.7 %
Extraction speed 6.9 X
Range quality 100.0 %
Test CRC 8F604207
Copy CRC 8F604207
Copy OK

No errors occurred

AccurateRip summary

Track 1 cannot be verified as accurate (confidence 13) [E9DBDD69], AccurateRip returned [85F51ABE] (AR v2)
Track 2 cannot be verified as accurate (confidence 12) [A7986D66], AccurateRip returned [B6006512] (AR v2)
Track 3 cannot be verified as accurate (confidence 12) [733C52ED], AccurateRip returned [A194FF41] (AR v2)
Track 4 cannot be verified as accurate (confidence 13) [4DEAFA90], AccurateRip returned [B4F59CB6] (AR v2)
Track 5 cannot be verified as accurate (confidence 12) [8541E6C8], AccurateRip returned [79E0001E] (AR v2)
Track 6 cannot be verified as accurate (confidence 13) [51E03F3C], AccurateRip returned [8645FA0C] (AR v2)
Track 7 cannot be verified as accurate (confidence 12) [C8F0CAA2], AccurateRip returned [725B5EF0] (AR v2)
Track 8 cannot be verified as accurate (confidence 14) [771C8ED3], AccurateRip returned [AE08B6D9] (AR v2)
Track 9 cannot be verified as accurate (confidence 12) [E8D655CC], AccurateRip returned [3D3D5A1A] (AR v2)
Track 10 cannot be verified as accurate (confidence 12) [3ECE060A], AccurateRip returned [290E1CCB] (AR v2)
Track 11 cannot be verified as accurate (confidence 12) [87EAE1AB], AccurateRip returned [1D08BEB4] (AR v2)
Track 12 cannot be verified as accurate (confidence 12) [65D551A6], AccurateRip returned [6E241B1F] (AR v2)
Track 13 cannot be verified as accurate (confidence 12) [1365DEEB], AccurateRip returned [71EE19FC] (AR v2)
Track 14 cannot be verified as accurate (confidence 12) [D2E39DCA], AccurateRip returned [C421D4E7] (AR v2)
Track 15 cannot be verified as accurate (confidence 12) [8E9FD084], AccurateRip returned [D48945AB] (AR v2)
Track 16 cannot be verified as accurate (confidence 12) [42AEED96], AccurateRip returned [00ECA65B] (AR v2)

No tracks could be verified as accurate
You may have a different pressing from the one(s) in the database

End of status report

==== Log checksum 99CDC498290C56A54A314AA82AAA0887487CE4E54A64855C25FF80A433BDCBAD ====

REM GENRE “Hard Rock”
REM DATE 1975
REM DISCID DA125C10
REM COMMENT “ExactAudioCopy v1.0b3”
PERFORMER “Nazareth”
TITLE “Hair Of The Dog (2010 Remaster)”
FILE “Nazareth – Hair Of The Dog (2010 Remaster).flac” WAVE
TRACK 01 AUDIO
TITLE “Hair of the dog”
PERFORMER “Nazareth”
INDEX 01 00:00:00
TRACK 02 AUDIO
TITLE “Miss misery”
PERFORMER “Nazareth”
INDEX 01 04:11:10
TRACK 03 AUDIO
TITLE “Guilty”
PERFORMER “Nazareth”
INDEX 01 08:54:28
TRACK 04 AUDIO
TITLE “Changin’ times”
PERFORMER “Nazareth”
INDEX 01 12:35:02
TRACK 05 AUDIO
TITLE “A: Beggar’s day B: Rose in the heather”
PERFORMER “Nazareth”
INDEX 01 18:34:49
TRACK 06 AUDIO
TITLE “Whiskey drinkin’ woman”
PERFORMER “Nazareth”
INDEX 01 25:04:68
TRACK 07 AUDIO
TITLE “Please don’t Judas me”
PERFORMER “Nazareth”
INDEX 01 30:35:23
TRACK 08 AUDIO
TITLE “Love hurts (Single)”
PERFORMER “Nazareth”
INDEX 01 40:19:35
TRACK 09 AUDIO
TITLE “My white bicycle (Single)”
PERFORMER “Nazareth”
INDEX 01 44:11:44
TRACK 10 AUDIO
TITLE “Holy roller (Single)”
PERFORMER “Nazareth”
INDEX 01 47:37:37
TRACK 11 AUDIO
TITLE “Railroad boy (B-Side of Holy roller)”
PERFORMER “Nazareth”
INDEX 01 51:02:18
TRACK 12 AUDIO
TITLE “Hair of the dog (BBC Live recording)”
PERFORMER “Nazareth”
INDEX 01 55:08:69
TRACK 13 AUDIO
TITLE “Holy roller (BBC Live recording)”
PERFORMER “Nazareth”
INDEX 01 58:56:17
TRACK 14 AUDIO
TITLE “Teenage nervous breakdown (BBC Live recording)”
PERFORMER “Nazareth”
INDEX 01 63:18:42
TRACK 15 AUDIO
TITLE “This flight tonight (BBC Live recording)”
PERFORMER “Nazareth”
INDEX 01 67:40:14
TRACK 16 AUDIO
TITLE “Road ladies (BBC Live recording)”
PERFORMER “Nazareth”
INDEX 01 71:17:60


Leave a Reply

Your email address will not be published. Required fields are marked *

This site uses Akismet to reduce spam. Learn how your comment data is processed.