Nazareth – Hair of the Dog (Reissue)




Artist: Nazareth
Year: 1975/1990
Genre: Rock
Notes: Discogs
Add. Notes: Reissue
Cover incl.: Yes
Encoder: FLAC
Bitrate: ~900 kBit/s (44.1 kHz/16 Bit/s)
Log & Cue incl.: Yes
Size: 357,7 MB
Password: “slam” (without ” “)


All Downloads/Hosters are compatible

Download 1
KatFile.com
Turbobit.net
FileFactory.com
Rapidgator.net
Download 2
KatFile.com
Turbobit.net
FileFactory.com
Rapidgator.net

Tracklist:

1 Hair Of The Dog 4:10
2 Miss Misery 4:41
3 Love Hurts 3:52
4 Changin' Times 6:03
5 Beggars Day 3:45
6 Rose In The Heather 2:45
7 Whiskey Drinkin' Woman 5:30
8 Please Don't Judas Me 9:50

EAC-Log, CUE-Sheed & NFO:

Click to open spoiler
Exact Audio Copy V1.0 beta 3 from 29. August 2011

EAC extraction logfile from 1. April 2014, 0:42

Nazareth / Hair of the Dog

Used drive : SONY BD RW BDX-S600U Adapter: 2 ID: 1

Read mode : Secure
Utilize accurate stream : Yes
Defeat audio cache : Yes
Make use of C2 pointers : No

Read offset correction : 48
Overread into Lead-In and Lead-Out : No
Fill up missing offset samples with silence : Yes
Delete leading and trailing silent blocks : No
Null samples used in CRC calculations : Yes
Used interface : Native Win32 interface for Win NT & 2000

Used output format : User Defined Encoder
Selected bitrate : 128 kBit/s
Quality : High
Add ID3 tag : No
Command line compressor : C:\Program Files (x86)\Exact Audio Copy\Flac\flac.exe
Additional command line options : -V -8 -T “Date=%year%” -T “Genre=%genre%” %source%

TOC of the extracted CD

Track | Start | Length | Start sector | End sector
———————————————————
1 | 0:00.00 | 4:09.18 | 0 | 18692
2 | 4:09.18 | 4:40.42 | 18693 | 39734
3 | 8:49.60 | 3:53.10 | 39735 | 57219
4 | 12:42.70 | 6:03.37 | 57220 | 84481
5 | 18:46.32 | 3:45.48 | 84482 | 101404
6 | 22:32.05 | 2:44.38 | 101405 | 113742
7 | 25:16.43 | 5:29.57 | 113743 | 138474
8 | 30:46.25 | 9:47.60 | 138475 | 182559

Range status and errors

Selected range

Filename D:\Nazareth discography\Studio\1975. Nazareth – Hair Of The Dog\1975. Nazareth – Hair of the Dog (A&M Rec.,CD-3225,USA)\Nazareth – Hair of the Dog.wav

Peak level 100.0 %
Extraction speed 5.9 X
Range quality 100.0 %
Test CRC 8C0B3F14
Copy CRC 8C0B3F14
Copy OK

No errors occurred

AccurateRip summary

Track 1 accurately ripped (confidence 20) [DDFEB89B] (AR v2)
Track 2 accurately ripped (confidence 20) [BC9E4BF8] (AR v2)
Track 3 accurately ripped (confidence 20) [AB98D3E5] (AR v2)
Track 4 accurately ripped (confidence 20) [C7C7A084] (AR v2)
Track 5 accurately ripped (confidence 20) [165ABC52] (AR v2)
Track 6 accurately ripped (confidence 20) [7642EA09] (AR v2)
Track 7 accurately ripped (confidence 20) [58C26002] (AR v2)
Track 8 accurately ripped (confidence 20) [F331B698] (AR v2)

All tracks accurately ripped

End of status report

—- CUETools DB Plugin V2.1.4

[CTDB TOCID: sAyIhazT08PMtow_mP0j_1g9nS0-] found
Submit result: sAyIhazT08PMtow_mP0j_1g9nS0- has been confirmed
Track | CTDB Status
1 | (9/9) Accurately ripped
2 | (9/9) Accurately ripped
3 | (9/9) Accurately ripped
4 | (9/9) Accurately ripped
5 | (9/9) Accurately ripped
6 | (9/9) Accurately ripped
7 | (9/9) Accurately ripped
8 | (9/9) Accurately ripped

==== Log checksum CE4283169C9E049E762D268313A27CAE7DBAFDD218810783AFA1D70AAAA3288F ====

REM GENRE “Hard Rock”
REM DATE 1975
REM DISCID 61098208
REM COMMENT “ExactAudioCopy v1.0b3”
CATALOG 0075021322523
PERFORMER “Nazareth”
TITLE “Hair of the Dog”
FILE “Nazareth – Hair of the Dog.flac” WAVE
TRACK 01 AUDIO
TITLE “Hair of the Dog”
PERFORMER “Nazareth”
ISRC USAM17502187
INDEX 01 00:00:00
TRACK 02 AUDIO
TITLE “Miss Misery”
PERFORMER “Nazareth”
INDEX 01 04:09:18
TRACK 03 AUDIO
TITLE “Love Hurts”
PERFORMER “Nazareth”
INDEX 01 08:49:60
TRACK 04 AUDIO
TITLE “Changin’ Times”
PERFORMER “Nazareth”
INDEX 01 12:42:70
TRACK 05 AUDIO
TITLE “Beggar’s Day”
PERFORMER “Nazareth”
ISRC USAM10080147
INDEX 00 18:43:63
INDEX 01 18:46:32
TRACK 06 AUDIO
TITLE “Rose in the Heather”
PERFORMER “Nazareth”
INDEX 01 22:32:05
TRACK 07 AUDIO
TITLE “Whiskey Drinkin’ Woman”
PERFORMER “Nazareth”
INDEX 01 25:16:43
TRACK 08 AUDIO
TITLE “Please Don’t Judas Me”
PERFORMER “Nazareth”
INDEX 01 30:46:25


Leave a Reply

Your email address will not be published. Required fields are marked *

This site uses Akismet to reduce spam. Learn how your comment data is processed.