Nazareth – Hair of the Dog




No Cover available

Artist: Nazareth
Year: 1975/1992
Genre: Rock
Notes: Discogs
Add. Notes:
Watch Songs on: YouTube
Cover incl.: Yes
Encoder: FLAC
Bitrate: ~800 kBit/s (44.1 kHz/16 Bit/s)
Log & Cue incl.: Yes/Yes
Size: 331,3 MB
Password: “slam” (without ” “)


All Downloads/Hosters are compatible

Download 1
KatFile.com
Turbobit.net
Rapidgator.net
FileFactory.com
Download 2
KatFile.com
Turbobit.net
Rapidgator.net
FileFactory.com

Tracklist:

1 Hair Of The Dog 
2 Miss Misery 
3 Guilty 
4 Changin' Times 
5a Beggars Day 
5b Rose In Heather 
6 Whiskey Drinkin' Woman 
7 Please Don't Judas Me

EAC-Log, CUE-Sheed & NFO:

Click to open spoiler
Exact Audio Copy V1.0 beta 3 from 29. August 2011

EAC extraction logfile from 11. March 2014, 12:14

Nazareth / Hair of the Dog

Used drive : SONY BD RW BDX-S600U Adapter: 2 ID: 1

Read mode : Secure
Utilize accurate stream : Yes
Defeat audio cache : Yes
Make use of C2 pointers : No

Read offset correction : 48
Overread into Lead-In and Lead-Out : No
Fill up missing offset samples with silence : Yes
Delete leading and trailing silent blocks : No
Null samples used in CRC calculations : Yes
Used interface : Native Win32 interface for Win NT & 2000

Used output format : User Defined Encoder
Selected bitrate : 128 kBit/s
Quality : High
Add ID3 tag : No
Command line compressor : C:\Program Files (x86)\Exact Audio Copy\Flac\flac.exe
Additional command line options : -V -8 -T “Date=%year%” -T “Genre=%genre%” %source%

TOC of the extracted CD

Track | Start | Length | Start sector | End sector
———————————————————
1 | 0:00.32 | 4:11.00 | 32 | 18856
2 | 4:11.32 | 4:42.05 | 18857 | 40011
3 | 8:53.37 | 3:39.05 | 40012 | 56441
4 | 12:32.42 | 6:01.65 | 56442 | 83581
5 | 18:34.32 | 6:30.20 | 83582 | 112851
6 | 25:04.52 | 5:29.48 | 112852 | 137574
7 | 30:34.25 | 9:48.30 | 137575 | 181704

Range status and errors

Selected range

Filename D:\Nazareth discography\1975. Nazareth – Hair Of The Dog\1975. Nazareth – Hair of the Dog (Castle Com., CLACD 241, EEC)\Nazareth – Hair of the Dog.wav

Peak level 100.0 %
Extraction speed 6.3 X
Range quality 100.0 %
Test CRC 1012F8FA
Copy CRC 1012F8FA
Copy OK

No errors occurred

AccurateRip summary

Track 1 accurately ripped (confidence 3) [8B84917D] (AR v2)
Track 2 accurately ripped (confidence 3) [CA6963AC] (AR v2)
Track 3 accurately ripped (confidence 3) [85B55FEA] (AR v2)
Track 4 accurately ripped (confidence 3) [ECEC9C1C] (AR v2)
Track 5 accurately ripped (confidence 3) [4F8AD90C] (AR v2)
Track 6 accurately ripped (confidence 3) [480A0AD7] (AR v2)
Track 7 accurately ripped (confidence 3) [19387501] (AR v2)

All tracks accurately ripped

End of status report

—- CUETools DB Plugin V2.1.4

[CTDB TOCID: F_vWKpZoMflkELmI.B6Zl_xqM5w-] found
Submit result: F_vWKpZoMflkELmI.B6Zl_xqM5w- has been confirmed
Track | CTDB Status
1 | (2/2) Accurately ripped
2 | (2/2) Accurately ripped
3 | (2/2) Accurately ripped
4 | (2/2) Accurately ripped
5 | (2/2) Accurately ripped
6 | (2/2) Accurately ripped
7 | (2/2) Accurately ripped

==== Log checksum 1AEA66480A2E375D85F6AB2893B4CCFDF6BCEDE6F691D58A85991CDF00C27E4E ====

REM GENRE Rock
REM DATE 1975
REM DISCID 50097607
REM COMMENT “ExactAudioCopy v1.0b3”
PERFORMER “Nazareth”
TITLE “Hair of the Dog”
FILE “Nazareth – Hair of the Dog.flac” WAVE
TRACK 01 AUDIO
TITLE “Hair of the Dog”
PERFORMER “Nazareth”
INDEX 00 00:00:00
INDEX 01 00:00:32
TRACK 02 AUDIO
TITLE “Miss Misery”
PERFORMER “Nazareth”
INDEX 01 04:11:32
TRACK 03 AUDIO
TITLE “Guilty”
PERFORMER “Nazareth”
INDEX 01 08:53:37
TRACK 04 AUDIO
TITLE “Changin’ Times”
PERFORMER “Nazareth”
INDEX 01 12:32:42
TRACK 05 AUDIO
TITLE “Rose in the Heather”
PERFORMER “Beggars Day”
INDEX 01 18:34:32
TRACK 06 AUDIO
TITLE “Whisky Drinkin’ Woman”
PERFORMER “Nazareth”
INDEX 01 25:04:52
TRACK 07 AUDIO
TITLE “Please Don’t Judas Me”
PERFORMER “Nazareth”
INDEX 01 30:34:25


0

Publication author

offline 9 hours

Chaos

3
Comments: 4Publics: 3360Registration: 02-02-2019
Spread the Download

Leave a Reply

Your email address will not be published. Required fields are marked *

Enter the text from the image below
 

This site uses Akismet to reduce spam. Learn how your comment data is processed.