Nazareth – Greatest Hits (Remastered)




Artist: Nazareth
Year: 1996
Genre: Rock
Notes: Discogs
Add. Notes: Remastered
Cover incl.: Yes
Encoder: FLAC
Bitrate: ~800 kBit/s (44.1 kHz/16 Bit/s)
Log & Cue incl.: Yes
Size: 456,92 MB
Password: “slam” (without ” “)


All Downloads/Hosters are compatible

Download 1
Turbobit.net
Rapidgator.net
KatFile.com
UsersDrive.com
CloudShare.to
Download 2
Turbobit.net
Rapidgator.net
KatFile.com
UsersDrive.com
CloudShare.to
Download 3
Turbobit.net
Rapidgator.net
KatFile.com
UsersDrive.com
CloudShare.to

Tracklist:

1 - This Flight Tonight - 3:22
2 - Expect No Mercy - 3:25
3 - Love Hurts - 3:51
4 - (Walk Me Out In The) Mountain Dew - 3:53
5 - Carry Out Fellings - 3:17
6 - Hair Of The Dog - 4:09
7 - Razamanaz - 3:48
8 - Love Leads To Madness - 4:04
9 - I Want To (Do Everything) - 4:15
10 - Holiday - 3:34
11 - Star - 4:54
12 - Dressed To Kill - 3:31
13 - Broken Down Angel - 3:44
14 - My White Bicycle - 3:27
15 - Heart's Grown Cold - 4:00
16 - Shanghai'd In Shanghai - 3:44
17 - Go Down Fighting - 3:05

EAC-Log, CUE-Sheed & NFO:

Click to open spoiler
Exact Audio Copy V1.1 from 23. June 2015

EAC extraction logfile from 27. November 2015, 19:26

Nazareth / Greatest Hits

Used drive : ASUS BW-12D1S-U Adapter: 1 ID: 0

Read mode : Secure
Utilize accurate stream : Yes
Defeat audio cache : Yes
Make use of C2 pointers : No

Read offset correction : 667
Overread into Lead-In and Lead-Out : No
Fill up missing offset samples with silence : Yes
Delete leading and trailing silent blocks : No
Null samples used in CRC calculations : Yes
Used interface : Native Win32 interface for Win NT & 2000
Gap handling : Appended to previous track

Used output format : User Defined Encoder
Selected bitrate : 768 kBit/s
Quality : High
Add ID3 tag : No
Command line compressor : D:\Program Files (x86)\Exact Audio Copy\Flac\flac.exe
Additional command line options : -8 -V -T “TITLE=%title%” -T “ARTIST=%artist%” -T “ALBUMARTIST=%albumartist%” -T “ALBUM=%albumtitle%” -T “DATE=%year%” -T “TRACKNUMBER=%tracknr%” -T “TRACKTOTAL=%numtracks%” -T “GENRE=%genre%” -T “COMMENT=%comment%” -T “PERFORMER=%albuminterpret%” -T “COMPOSER=%composer%” %source% -o %dest%

TOC of the extracted CD

Track | Start | Length | Start sector | End sector
———————————————————
1 | 0:00.00 | 3:22.37 | 0 | 15186
2 | 3:22.37 | 3:25.10 | 15187 | 30571
3 | 6:47.47 | 3:52.43 | 30572 | 48014
4 | 10:40.15 | 7:04.20 | 48015 | 79834
5 | 17:44.35 | 3:16.52 | 79835 | 94586
6 | 21:01.12 | 4:09.03 | 94587 | 113264
7 | 25:10.15 | 3:48.05 | 113265 | 130369
8 | 28:58.20 | 4:03.25 | 130370 | 148619
9 | 33:01.45 | 4:11.66 | 148620 | 167510
10 | 37:13.36 | 3:34.61 | 167511 | 183621
11 | 40:48.22 | 4:54.20 | 183622 | 205691
12 | 45:42.42 | 3:29.73 | 205692 | 221439
13 | 49:12.40 | 3:40.45 | 221440 | 237984
14 | 52:53.10 | 3:27.12 | 237985 | 253521
15 | 56:20.22 | 4:10.43 | 253522 | 272314
16 | 60:30.65 | 3:42.35 | 272315 | 288999
17 | 64:13.25 | 3:04.12 | 289000 | 302811
18 | 67:17.37 | 4:33.25 | 302812 | 323311

Track 1

Filename D:\Video&Music&Books\1996 – Nazareth Greatest Hits\01 This Flight Tonight.wav

Pre-gap length 0:00:02.00

Peak level 99.5 %
Extraction speed 4.0 X
Track quality 99.9 %
Test CRC 6AF3B8DE
Copy CRC 6AF3B8DE
Accurately ripped (confidence 8) [8595AFF9] (AR v2)
Copy OK

Track 2

Filename D:\Video&Music&Books\1996 – Nazareth Greatest Hits\02 Expect No Mercy.wav

Peak level 99.8 %
Extraction speed 4.9 X
Track quality 100.0 %
Test CRC A1238908
Copy CRC A1238908
Accurately ripped (confidence 8) [1ECBD695] (AR v2)
Copy OK

Track 3

Filename D:\Video&Music&Books\1996 – Nazareth Greatest Hits\03 Love Hurts.wav

Peak level 99.8 %
Extraction speed 5.4 X
Track quality 100.0 %
Test CRC BF596ECE
Copy CRC BF596ECE
Accurately ripped (confidence 8) [A2046724] (AR v2)
Copy OK

Track 4

Filename D:\Video&Music&Books\1996 – Nazareth Greatest Hits\04 (Walk Me Out in The) Morning Dew.wav

Peak level 99.8 %
Extraction speed 5.7 X
Track quality 99.9 %
Test CRC 7ACA1763
Copy CRC 7ACA1763
Accurately ripped (confidence 8) [C6413456] (AR v2)
Copy OK

Track 5

Filename D:\Video&Music&Books\1996 – Nazareth Greatest Hits\05 Carry Out Feelings.wav

Peak level 97.3 %
Extraction speed 6.0 X
Track quality 100.0 %
Test CRC 439B5BE0
Copy CRC 439B5BE0
Accurately ripped (confidence 8) [1E905313] (AR v2)
Copy OK

Track 6

Filename D:\Video&Music&Books\1996 – Nazareth Greatest Hits\06 Hair of the Dog.wav

Peak level 99.8 %
Extraction speed 6.5 X
Track quality 100.0 %
Test CRC F7A60B51
Copy CRC F7A60B51
Accurately ripped (confidence 8) [95743A11] (AR v2)
Copy OK

Track 7

Filename D:\Video&Music&Books\1996 – Nazareth Greatest Hits\07 Razamanaz.wav

Peak level 96.8 %
Extraction speed 5.9 X
Track quality 99.9 %
Test CRC E3B3031E
Copy CRC E3B3031E
Accurately ripped (confidence 8) [98DB3776] (AR v2)
Copy OK

Track 8

Filename D:\Video&Music&Books\1996 – Nazareth Greatest Hits\08 Love Leads to Madness.wav

Peak level 96.3 %
Extraction speed 6.1 X
Track quality 99.9 %
Test CRC 0FAF8549
Copy CRC 0FAF8549
Accurately ripped (confidence 8) [60506DA3] (AR v2)
Copy OK

Track 9

Filename D:\Video&Music&Books\1996 – Nazareth Greatest Hits\09 I Want to (Do Everything for You).wav

Peak level 99.8 %
Extraction speed 7.3 X
Track quality 100.0 %
Test CRC 5F6ED37F
Copy CRC 5F6ED37F
Accurately ripped (confidence 8) [0149258E] (AR v2)
Copy OK

Track 10

Filename D:\Video&Music&Books\1996 – Nazareth Greatest Hits\10 Holiday.wav

Peak level 99.8 %
Extraction speed 6.2 X
Track quality 99.9 %
Test CRC BDF53BF5
Copy CRC BDF53BF5
Accurately ripped (confidence 8) [BD3B92B6] (AR v2)
Copy OK

Track 11

Filename D:\Video&Music&Books\1996 – Nazareth Greatest Hits\11 Star.wav

Peak level 96.5 %
Extraction speed 7.6 X
Track quality 100.0 %
Test CRC E4F32B6F
Copy CRC E4F32B6F
Accurately ripped (confidence 8) [52501C4D] (AR v2)
Copy OK

Track 12

Filename D:\Video&Music&Books\1996 – Nazareth Greatest Hits\12 Dressed to Kill.wav

Peak level 99.8 %
Extraction speed 7.5 X
Track quality 100.0 %
Test CRC CAF52A6E
Copy CRC CAF52A6E
Accurately ripped (confidence 8) [DA7B0A15] (AR v2)
Copy OK

Track 13

Filename D:\Video&Music&Books\1996 – Nazareth Greatest Hits\13 Broken Down Angel.wav

Peak level 99.8 %
Extraction speed 7.7 X
Track quality 100.0 %
Test CRC 8D7DA2E4
Copy CRC 8D7DA2E4
Accurately ripped (confidence 8) [6940DD66] (AR v2)
Copy OK

Track 14

Filename D:\Video&Music&Books\1996 – Nazareth Greatest Hits\14 My White Bicycle.wav

Peak level 99.8 %
Extraction speed 5.8 X
Track quality 99.9 %
Test CRC 27117C79
Copy CRC 27117C79
Accurately ripped (confidence 8) [4FB8A9D8] (AR v2)
Copy OK

Track 15

Filename D:\Video&Music&Books\1996 – Nazareth Greatest Hits\15 Heart’s Grown Cold.wav

Peak level 99.8 %
Extraction speed 8.2 X
Track quality 100.0 %
Test CRC B390A7B7
Copy CRC B390A7B7
Accurately ripped (confidence 8) [BC2AE95A] (AR v2)
Copy OK

Track 16

Filename D:\Video&Music&Books\1996 – Nazareth Greatest Hits\16 Shanghai’d in Shanghai.wav

Peak level 99.8 %
Extraction speed 8.2 X
Track quality 100.0 %
Test CRC 242629CD
Copy CRC 242629CD
Accurately ripped (confidence 8) [6DD5D045] (AR v2)
Copy OK

Track 17

Filename D:\Video&Music&Books\1996 – Nazareth Greatest Hits\17 Go Down Fighting.wav

Peak level 99.8 %
Extraction speed 8.2 X
Track quality 100.0 %
Test CRC C5F69F88
Copy CRC C5F69F88
Accurately ripped (confidence 7) [32E5EE8B] (AR v2)
Copy OK

Track 18

Filename D:\Video&Music&Books\1996 – Nazareth Greatest Hits\18 Cocaine (Live Version).wav

Peak level 99.8 %
Extraction speed 8.8 X
Track quality 100.0 %
Test CRC 07738971
Copy CRC 07738971
Accurately ripped (confidence 7) [50A4490D] (AR v2)
Copy OK

All tracks accurately ripped

No errors occurred

End of status report

—- CUETools DB Plugin V2.1.6

[CTDB TOCID: Fi954cmQ_4F_iLL77yuy37bH50A-] found
Submit result: Fi954cmQ_4F_iLL77yuy37bH50A- has been confirmed
Track | CTDB Status
1 | (8/8) Accurately ripped
2 | (8/8) Accurately ripped
3 | (8/8) Accurately ripped
4 | (8/8) Accurately ripped
5 | (8/8) Accurately ripped
6 | (8/8) Accurately ripped
7 | (8/8) Accurately ripped
8 | (8/8) Accurately ripped
9 | (8/8) Accurately ripped
10 | (8/8) Accurately ripped
11 | (8/8) Accurately ripped
12 | (8/8) Accurately ripped
13 | (8/8) Accurately ripped
14 | (8/8) Accurately ripped
15 | (8/8) Accurately ripped
16 | (8/8) Accurately ripped
17 | (8/8) Accurately ripped
18 | (8/8) Accurately ripped

==== Log checksum B4A4DF2EBA4E51C719F2058F5C09EFD16AC1E9B2F7DB276EC145C5F222F873FF ====

REM GENRE Rock
REM DATE 1996
REM DISCID F310D612
REM COMMENT “ExactAudioCopy v1.1”
PERFORMER “Nazareth”
TITLE “Greatest Hits”
FILE “01 This Flight Tonight.wav” WAVE
TRACK 01 AUDIO
TITLE “This Flight Tonight”
PERFORMER “Nazareth”
INDEX 01 00:00:00
FILE “02 Expect No Mercy.wav” WAVE
TRACK 02 AUDIO
TITLE “Expect No Mercy”
PERFORMER “Nazareth”
INDEX 01 00:00:00
FILE “03 Love Hurts.wav” WAVE
TRACK 03 AUDIO
TITLE “Love Hurts”
PERFORMER “Nazareth”
INDEX 01 00:00:00
FILE “04 (Walk Me Out in The) Morning Dew.wav” WAVE
TRACK 04 AUDIO
TITLE “(Walk Me Out in The) Morning Dew”
PERFORMER “Nazareth”
INDEX 01 00:00:00
FILE “05 Carry Out Feelings.wav” WAVE
TRACK 05 AUDIO
TITLE “Carry Out Feelings”
PERFORMER “Nazareth”
INDEX 01 00:00:00
FILE “06 Hair of the Dog.wav” WAVE
TRACK 06 AUDIO
TITLE “Hair of the Dog”
PERFORMER “Nazareth”
INDEX 01 00:00:00
FILE “07 Razamanaz.wav” WAVE
TRACK 07 AUDIO
TITLE “Razamanaz”
PERFORMER “Nazareth”
INDEX 01 00:00:00
FILE “08 Love Leads to Madness.wav” WAVE
TRACK 08 AUDIO
TITLE “Love Leads to Madness”
PERFORMER “Nazareth”
INDEX 01 00:00:00
FILE “09 I Want to (Do Everything for You).wav” WAVE
TRACK 09 AUDIO
TITLE “I Want to (Do Everything for You)”
PERFORMER “Nazareth”
INDEX 01 00:00:00
FILE “10 Holiday.wav” WAVE
TRACK 10 AUDIO
TITLE “Holiday”
PERFORMER “Nazareth”
INDEX 01 00:00:00
FILE “11 Star.wav” WAVE
TRACK 11 AUDIO
TITLE “Star”
PERFORMER “Nazareth”
INDEX 01 00:00:00
FILE “12 Dressed to Kill.wav” WAVE
TRACK 12 AUDIO
TITLE “Dressed to Kill”
PERFORMER “Nazareth”
INDEX 01 00:00:00
FILE “13 Broken Down Angel.wav” WAVE
TRACK 13 AUDIO
TITLE “Broken Down Angel”
PERFORMER “Nazareth”
INDEX 01 00:00:00
FILE “14 My White Bicycle.wav” WAVE
TRACK 14 AUDIO
TITLE “My White Bicycle”
PERFORMER “Nazareth”
INDEX 01 00:00:00
FILE “15 Heart’s Grown Cold.wav” WAVE
TRACK 15 AUDIO
TITLE “Heart’s Grown Cold”
PERFORMER “Nazareth”
INDEX 01 00:00:00
FILE “16 Shanghai’d in Shanghai.wav” WAVE
TRACK 16 AUDIO
TITLE “Shanghai’d in Shanghai”
PERFORMER “Nazareth”
INDEX 01 00:00:00
FILE “17 Go Down Fighting.wav” WAVE
TRACK 17 AUDIO
TITLE “Go Down Fighting”
PERFORMER “Nazareth”
INDEX 01 00:00:00
FILE “18 Cocaine (Live Version).wav” WAVE
TRACK 18 AUDIO
TITLE “Cocaine (Live Version)”
PERFORMER “Nazareth”
INDEX 01 00:00:00

Leave a Reply

Your email address will not be published. Required fields are marked *

This site uses Akismet to reduce spam. Learn how your comment data is processed.