Nazareth – Greatest Hits




Artist: Nazareth
Year: 1990
Genre: Rock
Notes: Discogs
Add. Notes:
Cover incl.: Yes
Encoder: FLAC
Bitrate: ~900 kBit/s (44.1 kHz/16 Bit/s)
Log & Cue incl.: Yes
Size: 470,3 MB
Password: “slam” (without ” “)


All Downloads/Hosters are compatible

Download 1
KatFile.com
Turbobit.net
FileFactory.com
Rapidgator.net
Download 2
KatFile.com
Turbobit.net
FileFactory.com
Rapidgator.net

Tracklist:

1 Love Hurts 
2 I Don't Want To Go On Without You 
3 Holiday 
4 Broken Down Angel 
5 Bad Bad Boy 
6 Shanghai'd In Shanghai 
7 Gone Dead Train 
8 Star 
9 Place In Your Heart 
10 This Flight Tonight 
11 My White Bicycle 
12 Holy Roller 
13 May The Sunshine 
14 Dream On 
15 Turn On Your Receiver 
16 Morning Dew 

EAC-Log, CUE-Sheed & NFO:

Click to open spoiler
Exact Audio Copy V1.0 beta 3 from 29. August 2011

EAC extraction logfile from 18. March 2014, 0:05

Nazareth / Greatest Hits

Used drive : SONY BD RW BDX-S600U Adapter: 2 ID: 1

Read mode : Secure
Utilize accurate stream : Yes
Defeat audio cache : Yes
Make use of C2 pointers : No

Read offset correction : 48
Overread into Lead-In and Lead-Out : No
Fill up missing offset samples with silence : Yes
Delete leading and trailing silent blocks : No
Null samples used in CRC calculations : Yes
Used interface : Native Win32 interface for Win NT & 2000

Used output format : User Defined Encoder
Selected bitrate : 128 kBit/s
Quality : High
Add ID3 tag : No
Command line compressor : C:\Program Files (x86)\Exact Audio Copy\Flac\flac.exe
Additional command line options : -V -8 -T “Date=%year%” -T “Genre=%genre%” %source%

TOC of the extracted CD

Track | Start | Length | Start sector | End sector
———————————————————
1 | 0:00.33 | 3:54.25 | 33 | 17607
2 | 3:54.58 | 3:38.62 | 17608 | 34019
3 | 7:33.45 | 3:36.63 | 34020 | 50282
4 | 11:10.33 | 3:36.47 | 50283 | 66529
5 | 14:47.05 | 3:59.15 | 66530 | 84469
6 | 18:46.20 | 3:44.50 | 84470 | 101319
7 | 22:30.70 | 3:45.25 | 101320 | 118219
8 | 26:16.20 | 4:56.63 | 118220 | 140482
9 | 31:13.08 | 3:00.62 | 140483 | 154044
10 | 34:13.70 | 3:24.00 | 154045 | 169344
11 | 37:37.70 | 3:25.50 | 169345 | 184769
12 | 41:03.45 | 3:24.38 | 184770 | 200107
13 | 44:28.08 | 4:46.37 | 200108 | 221594
14 | 49:14.45 | 3:26.13 | 221595 | 237057
15 | 52:40.58 | 3:20.00 | 237058 | 252057
16 | 56:00.58 | 7:04.17 | 252058 | 283874

Range status and errors

Selected range

Filename D:\Nazareth discography\Compilations\1990. Nazareth – Greatest Hits\1990. Nazareth – Greatest Hits (BR Music BR 139-2,Holland)\Nazareth – Greatest Hits.wav

Peak level 100.0 %
Extraction speed 6.9 X
Range quality 100.0 %
Test CRC 48D30A01
Copy CRC 48D30A01
Copy OK

No errors occurred

AccurateRip summary

Track 1 accurately ripped (confidence 4) [0D67FB58] (AR v2)
Track 2 accurately ripped (confidence 4) [76CD1040] (AR v2)
Track 3 accurately ripped (confidence 4) [BCA206D6] (AR v2)
Track 4 accurately ripped (confidence 4) [0651D9B1] (AR v2)
Track 5 accurately ripped (confidence 4) [41C68A4C] (AR v2)
Track 6 accurately ripped (confidence 4) [539CE2B4] (AR v2)
Track 7 accurately ripped (confidence 4) [EB5BBA62] (AR v2)
Track 8 accurately ripped (confidence 4) [D7DEC36E] (AR v2)
Track 9 accurately ripped (confidence 4) [03EE3149] (AR v2)
Track 10 accurately ripped (confidence 4) [02C85C35] (AR v2)
Track 11 accurately ripped (confidence 4) [49676A0C] (AR v2)
Track 12 accurately ripped (confidence 4) [F3AB4EE4] (AR v2)
Track 13 accurately ripped (confidence 4) [11694EFC] (AR v2)
Track 14 accurately ripped (confidence 4) [DAD5BF83] (AR v2)
Track 15 accurately ripped (confidence 4) [8744047A] (AR v2)
Track 16 accurately ripped (confidence 4) [042F1D94] (AR v2)

All tracks accurately ripped

End of status report

—- CUETools DB Plugin V2.1.4

[CTDB TOCID: 7y3UMg.UHERGtRf1KtSL9sh3ZRE-] found
Submit result: 7y3UMg.UHERGtRf1KtSL9sh3ZRE- has been confirmed
Track | CTDB Status
1 | (2/2) Accurately ripped
2 | (2/2) Accurately ripped
3 | (2/2) Accurately ripped
4 | (2/2) Accurately ripped
5 | (2/2) Accurately ripped
6 | (1/2) Accurately ripped
7 | (1/2) Accurately ripped
8 | (1/2) Accurately ripped
9 | (1/2) Accurately ripped
10 | (1/2) Accurately ripped
11 | (2/2) Accurately ripped
12 | (2/2) Accurately ripped
13 | (2/2) Accurately ripped
14 | (2/2) Accurately ripped
15 | (2/2) Accurately ripped
16 | (1/2) Accurately ripped

==== Log checksum 59FD0416A013044F4E2143984A9FA7AAEEFBC316B4D9F327BCF04420AC4F9119 ====

REM GENRE Rock
REM DATE 1990
REM DISCID F20EC910
REM COMMENT “ExactAudioCopy v1.0b3”
PERFORMER “Nazareth”
TITLE “Greatest Hits”
FILE “Nazareth – Greatest Hits.flac” WAVE
TRACK 01 AUDIO
TITLE “Love Hurts”
PERFORMER “Nazareth”
INDEX 00 00:00:00
INDEX 01 00:00:33
TRACK 02 AUDIO
TITLE “I Dont Want To Go On Without You”
PERFORMER “Nazareth”
INDEX 00 03:53:15
INDEX 01 03:54:58
TRACK 03 AUDIO
TITLE “Holiday”
PERFORMER “Nazareth”
INDEX 00 07:32:08
INDEX 01 07:33:45
TRACK 04 AUDIO
TITLE “Broken Down Angel”
PERFORMER “Nazareth”
INDEX 00 11:08:68
INDEX 01 11:10:33
TRACK 05 AUDIO
TITLE “Bad Bad Boy”
PERFORMER “Nazareth”
INDEX 00 14:45:43
INDEX 01 14:47:05
TRACK 06 AUDIO
TITLE “Shanghai’d In Shanghai”
PERFORMER “Nazareth”
INDEX 00 18:44:63
INDEX 01 18:46:20
TRACK 07 AUDIO
TITLE “Gone Dead Train”
PERFORMER “Nazareth”
INDEX 00 22:29:30
INDEX 01 22:30:70
TRACK 08 AUDIO
TITLE “Star”
PERFORMER “Nazareth”
INDEX 00 26:14:60
INDEX 01 26:16:20
TRACK 09 AUDIO
TITLE “Place In Your Heart”
PERFORMER “Nazareth”
INDEX 00 31:11:40
INDEX 01 31:13:08
TRACK 10 AUDIO
TITLE “This Flight Tonight”
PERFORMER “Nazareth”
INDEX 00 34:12:33
INDEX 01 34:13:70
TRACK 11 AUDIO
TITLE “My White Bicycle”
PERFORMER “Nazareth”
INDEX 00 37:36:25
INDEX 01 37:37:70
TRACK 12 AUDIO
TITLE “Holy Roller”
PERFORMER “Nazareth”
INDEX 00 41:02:00
INDEX 01 41:03:45
TRACK 13 AUDIO
TITLE “May The Sunshine”
PERFORMER “Nazareth”
INDEX 00 44:26:45
INDEX 01 44:28:08
TRACK 14 AUDIO
TITLE “Dream On”
PERFORMER “Nazareth”
INDEX 00 49:12:73
INDEX 01 49:14:45
TRACK 15 AUDIO
TITLE “Turn On Your Receiver”
PERFORMER “Nazareth”
INDEX 00 52:39:20
INDEX 01 52:40:58
TRACK 16 AUDIO
TITLE “Morning Dew”
PERFORMER “Nazareth”
INDEX 00 55:59:13
INDEX 01 56:00:58


Leave a Reply

Your email address will not be published. Required fields are marked *

This site uses Akismet to reduce spam. Learn how your comment data is processed.