Nazareth – Greatest Hits (Reissue)




No Cover available

Artist: Nazareth
Year: 1975/1987
Genre: Rock
Notes: Discogs
Add. Notes: Reissue
Watch Songs on: YouTube
Cover incl.: Yes
Encoder: FLAC
Bitrate: ~800 kBit/s (44.1 kHz/16 Bit/s)
Log & Cue incl.: Yes/Yes
Size: 464,1 MB
Password: “slam” (without ” “)


All Downloads/Hosters are compatible

Download 1
KatFile.com
Turbobit.net
Rapidgator.net
FileFactory.com
Download 2
KatFile.com
Turbobit.net
Rapidgator.net
FileFactory.com

Tracklist:

1 Holy Roller 3:25
2 Shanghai'd In Shanghai 3:45
3 Love Hurts 3:54
4 Turn On Your Receiver 3:19
5 Bad Bad Boy 3:57
6 Razamanaz 3:48
7 This Flight Tonight 3:23
8 Broken Down Angel 3:41
9 Hair Of The Dog 3:20
10 Sunshine 3:44
11 My White Bicycle 3:26
12 Woke Up This Morning 3:51

Bonus Tracks:
13 Expect No Mercy 3:27
14 Dream On 3:28
15 Where Are You Now 3:55

EAC-Log, CUE-Sheed & NFO:

Click to open spoiler
Exact Audio Copy V1.0 beta 3 from 29. August 2011

EAC extraction logfile from 22. May 2014, 0:31

Nazareth / Greatest Hits

Used drive : SONY BD RW BDX-S600U Adapter: 2 ID: 1

Read mode : Secure
Utilize accurate stream : Yes
Defeat audio cache : Yes
Make use of C2 pointers : No

Read offset correction : 48
Overread into Lead-In and Lead-Out : No
Fill up missing offset samples with silence : Yes
Delete leading and trailing silent blocks : No
Null samples used in CRC calculations : Yes
Used interface : Native Win32 interface for Win NT & 2000

Used output format : User Defined Encoder
Selected bitrate : 128 kBit/s
Quality : High
Add ID3 tag : No
Command line compressor : C:\Program Files (x86)\Exact Audio Copy\Flac\flac.exe
Additional command line options : -V -8 -T “Date=%year%” -T “Genre=%genre%” %source%

TOC of the extracted CD

Track | Start | Length | Start sector | End sector
———————————————————
1 | 0:00.33 | 3:24.60 | 33 | 15392
2 | 3:25.18 | 3:45.25 | 15393 | 32292
3 | 7:10.43 | 3:53.47 | 32293 | 49814
4 | 11:04.15 | 3:19.00 | 49815 | 64739
5 | 14:23.15 | 3:57.00 | 64740 | 82514
6 | 18:20.15 | 3:47.55 | 82515 | 99594
7 | 22:07.70 | 3:23.20 | 99595 | 114839
8 | 25:31.15 | 3:40.40 | 114840 | 131379
9 | 29:11.55 | 3:19.38 | 131380 | 146342
10 | 32:31.18 | 3:44.25 | 146343 | 163167
11 | 36:15.43 | 3:25.55 | 163168 | 178597
12 | 39:41.23 | 3:50.67 | 178598 | 195914
13 | 43:32.15 | 3:27.00 | 195915 | 211439
14 | 46:59.15 | 3:27.38 | 211440 | 227002
15 | 50:26.53 | 3:55.12 | 227003 | 244639

Range status and errors

Selected range

Filename D:\Nazareth discography\Compilations\1990. Nazareth – Greatest Hits\1990. Nazareth – Greatest Hits (Vertigo 824 427-2,Germany)\Nazareth – Greatest Hits.wav

Peak level 96.0 %
Extraction speed 6.7 X
Range quality 99.9 %
Test CRC FD9EDE8A
Copy CRC FD9EDE8A
Copy OK

No errors occurred

AccurateRip summary

Track 1 accurately ripped (confidence 20) [6EC2C488] (AR v2)
Track 2 accurately ripped (confidence 21) [39073603] (AR v2)
Track 3 accurately ripped (confidence 21) [D924E4F0] (AR v2)
Track 4 accurately ripped (confidence 20) [647A540F] (AR v2)
Track 5 accurately ripped (confidence 20) [F1282B58] (AR v2)
Track 6 accurately ripped (confidence 21) [11A48798] (AR v2)
Track 7 accurately ripped (confidence 21) [68A213FC] (AR v2)
Track 8 accurately ripped (confidence 21) [16888D86] (AR v2)
Track 9 accurately ripped (confidence 21) [55966CBA] (AR v2)
Track 10 accurately ripped (confidence 21) [B66207E0] (AR v2)
Track 11 accurately ripped (confidence 21) [B59B78B9] (AR v2)
Track 12 accurately ripped (confidence 21) [37D5E420] (AR v2)
Track 13 accurately ripped (confidence 21) [70D63613] (AR v2)
Track 14 accurately ripped (confidence 20) [CDF247EE] (AR v2)
Track 15 accurately ripped (confidence 21) [05525142] (AR v2)

All tracks accurately ripped

End of status report

—- CUETools DB Plugin V2.1.4

[CTDB TOCID: Aehg.RnDXpmmCNxDDWVsxt8fwug-] found
Submit result: Aehg.RnDXpmmCNxDDWVsxt8fwug- has been uploaded
Track | CTDB Status
1 | (2/3) Accurately ripped
2 | (3/3) Accurately ripped
3 | (3/3) Accurately ripped
4 | (2/3) Accurately ripped
5 | (3/3) Accurately ripped
6 | (2/3) Accurately ripped
7 | (1/3) Accurately ripped
8 | (2/3) Accurately ripped
9 | (1/3) Accurately ripped
10 | (3/3) Accurately ripped
11 | (2/3) Accurately ripped
12 | (0/3) No match
13 | (3/3) Accurately ripped
14 | (2/3) Accurately ripped
15 | (2/3) Accurately ripped

==== Log checksum AE2BCBF5D870D8F58250FF58D72C3D6E182631147E8B24ACC3DA86D7DC7F525C ====

REM GENRE Rock
REM DISCID C20CBD0F
REM COMMENT “ExactAudioCopy v1.0b3”
CATALOG 0042282442727
PERFORMER “Nazareth”
TITLE “Greatest Hits”
FILE “Nazareth – Greatest Hits.flac” WAVE
TRACK 01 AUDIO
TITLE “Holy Roller”
PERFORMER “Nazareth”
INDEX 00 00:00:00
INDEX 01 00:00:33
TRACK 02 AUDIO
TITLE “Shanghai’d In Shanghai”
PERFORMER “Nazareth”
INDEX 00 03:24:03
INDEX 01 03:25:18
TRACK 03 AUDIO
TITLE “Love Hurts”
PERFORMER “Nazareth”
INDEX 00 07:08:55
INDEX 01 07:10:43
TRACK 04 AUDIO
TITLE “Turn On Your Receiver”
PERFORMER “Nazareth”
INDEX 00 11:03:13
INDEX 01 11:04:15
TRACK 05 AUDIO
TITLE “Bad Bad Boy”
PERFORMER “Nazareth”
INDEX 00 14:22:38
INDEX 01 14:23:15
TRACK 06 AUDIO
TITLE “Razamanaz”
PERFORMER “Nazareth”
INDEX 00 18:19:21
INDEX 01 18:20:15
TRACK 07 AUDIO
TITLE “This Flight Tonight”
PERFORMER “Nazareth”
INDEX 01 22:07:70
TRACK 08 AUDIO
TITLE “Broken Down Angel”
PERFORMER “Nazareth”
INDEX 00 25:30:58
INDEX 01 25:31:15
TRACK 09 AUDIO
TITLE “Hair Of The Dog”
PERFORMER “Nazareth”
INDEX 01 29:11:55
TRACK 10 AUDIO
TITLE “Sunshine”
PERFORMER “Nazareth”
INDEX 00 32:28:58
INDEX 01 32:31:18
TRACK 11 AUDIO
TITLE “My White Bicycle”
PERFORMER “Nazareth”
INDEX 00 36:14:68
INDEX 01 36:15:43
TRACK 12 AUDIO
TITLE “Woke Up This Morning”
PERFORMER “Nazareth”
INDEX 01 39:41:23
TRACK 13 AUDIO
TITLE “Expect No Mercy”
PERFORMER “Nazareth”
INDEX 00 43:31:73
INDEX 01 43:32:15
TRACK 14 AUDIO
TITLE “Dream On”
PERFORMER “Nazareth”
INDEX 00 46:57:34
INDEX 01 46:59:15
TRACK 15 AUDIO
TITLE “Where Are You Now”
PERFORMER “Nazareth”
INDEX 00 50:24:33
INDEX 01 50:26:53


Leave a Reply

Your email address will not be published. Required fields are marked *

Enter the text from the image below
 

This site uses Akismet to reduce spam. Learn how your comment data is processed.