Nazareth – Expect No Mercy (Remastered)




[Total: 0    Average: 0/5]

Artist: Nazareth
Year: 1977/2002
Genre: Rock
Notes: Discogs
Add. Notes: Remastered
Cover incl.: Yes
Encoder: FLAC
Bitrate: ~900 kBit/s (44.1 kHz/16 Bit/s)
Log & Cue incl.: Yes
Size: 518,79 MB
Password: “slam” (without ” “)


All Downloads/Hosters are compatible

Download 1
Share-online.biz
KatFile.com
Rapidgator.net
Download 2
Share-online.biz
KatFile.com
Rapidgator.net

Tracklist:

1 - Expect No Mercy - 3:26
2 - Gone Dead Train - 3:44
3 - Shot Me Down - 3:31
4 - Revenge Is Sweet - 3:05
5 - Gimme What's Mine - 3:46
6 - Kentucky Fried Blues - 3:08
7 - New York Broken Toy - 3:39
8 - Busted - 3:41
9 - Place In Your Heart - 3:02
10 - All The King's Horses - 4:32
Bonus Tracks
11 - Greens (B-side) - 2:51
12 - Desolation Road (B-side) - 3:01
13 - Gone Dead Train (Edited Version) - 3:33
14 - Expect No Mercy (Alternate Version) - 2:55
15 - Place In Your Heart (Alternate Version) - 3:06
16 - Kentucky Fried Blues (Edited Version) - 2:50
17 - Expect No Mercy (Live Version) - 3:25

EAC-Log, CUE-Sheed & NFO:

Click to open spoiler
Exact Audio Copy V1.1 from 23. June 2015

Отчёт EAC об извлечении, выполненном 17. августа 2016, 18:45

Nazareth / Expect No Mercy

Дисковод: TSSTcorpBDDVDW SE-506BB Adapter: 1 ID: 1

Режим чтения : Достоверность
Использование точного потока : Да
Отключение кэша аудио : Да
Использование указателей C2 : Нет

Коррекция смещения при чтении : 6
Способность читать области Lead-in и Lead-out : Нет
Заполнение пропущенных сэмплов тишиной : Да
Удаление блоков с тишиной в начале и конце : Нет
При вычислениях CRC использовались нулевые сэмплы : Да
Интерфейс : Встроенный Win32-интерфейс для Win NT/2000

Выходной формат : Внутренние WAV-операции
Формат сэмплов : 44.100 Гц; 16 бит; стерео

TOC извлечённого CD

Трек | Старт | Длительность | Начальный сектор | Конечный сектор
———————————————————————
1 | 0:00.00 | 3:27.29 | 0 | 15553
2 | 3:27.29 | 3:44.05 | 15554 | 32358
3 | 7:11.34 | 3:30.62 | 32359 | 48170
4 | 10:42.21 | 3:05.16 | 48171 | 62061
5 | 13:47.37 | 3:45.49 | 62062 | 78985
6 | 17:33.11 | 3:08.04 | 78986 | 93089
7 | 20:41.15 | 3:39.09 | 93090 | 109523
8 | 24:20.24 | 3:41.10 | 109524 | 126108
9 | 28:01.34 | 3:01.70 | 126109 | 139753
10 | 31:03.29 | 4:29.26 | 139754 | 159954
11 | 35:32.55 | 2:50.14 | 159955 | 172718
12 | 38:22.69 | 2:58.64 | 172719 | 186132
13 | 41:21.58 | 3:31.46 | 186133 | 202003
14 | 44:53.29 | 2:54.26 | 202004 | 215079
15 | 47:47.55 | 3:04.21 | 215080 | 228900
16 | 50:52.01 | 2:49.45 | 228901 | 241620
17 | 53:41.46 | 3:19.12 | 241621 | 256557

Характеристики диапазона извлечения и сообщения об ошибках

Выбранный диапазон

Имя файла D:\Temp\Nazareth – 1977 – Expect No Mercy [2002 Eagle Records, EAMCD140].wav

Пиковый уровень 100.0 %
Скорость извлечения 4.4 X
Качество диапазона 100.0 %
CRC теста 91B616AE
CRC копии 91B616AE
Копирование… OK

Ошибок не произошло

AccurateRip: сводка

Трек 1 : извлечено точно (доверие 5) [4D18DBF8] (AR v2)
Трек 2 : извлечено точно (доверие 5) [515CCB95] (AR v2)
Трек 3 : извлечено точно (доверие 5) [D37B91EB] (AR v2)
Трек 4 : извлечено точно (доверие 5) [D5C81123] (AR v2)
Трек 5 : извлечено точно (доверие 5) [B23F3117] (AR v2)
Трек 6 : извлечено точно (доверие 5) [CDDC0600] (AR v2)
Трек 7 : извлечено точно (доверие 4) [68A6ACFC] (AR v2)
Трек 8 : извлечено точно (доверие 5) [9C23D7A2] (AR v2)
Трек 9 : извлечено точно (доверие 4) [D6597F8F] (AR v2)
Трек 10 : извлечено точно (доверие 4) [2E67C53F] (AR v2)
Трек 11 : извлечено точно (доверие 4) [459F6ED3] (AR v2)
Трек 12 : извлечено точно (доверие 3) [5C4F739B] (AR v2)
Трек 13 : извлечено точно (доверие 3) [2BCCE9FA] (AR v2)
Трек 14 : извлечено точно (доверие 3) [CD2A428C] (AR v2)
Трек 15 : извлечено точно (доверие 3) [C41F37F1] (AR v2)
Трек 16 : извлечено точно (доверие 3) [5F4E1B78] (AR v2)
Трек 17 : извлечено точно (доверие 3) [1108EE44] (AR v2)

Все треки извлечены точно

Конец отчёта

==== Контрольная сумма отчёта 3DFCD5ABBEF91F15B103DBCFD3A6B8935772B4BA9B26FB1A7FD9B22D9E3048EE ====

REM GENRE “Hard Rock”
REM DATE 1977
REM DISCID E90D5C11
REM COMMENT “ExactAudioCopy v1.1”
PERFORMER “Nazareth”
TITLE “Expect No Mercy”
FILE “Nazareth – 1977 – Expect No Mercy [2002 Eagle Records, EAMCD140].flac” WAVE
TRACK 01 AUDIO
TITLE “Expect No Mercy”
PERFORMER “Nazareth”
INDEX 01 00:00:00
TRACK 02 AUDIO
TITLE “Gone Dead Train”
PERFORMER “Nazareth”
INDEX 00 03:25:47
INDEX 01 03:27:29
TRACK 03 AUDIO
TITLE “Shot Me Down”
PERFORMER “Nazareth”
INDEX 00 07:09:52
INDEX 01 07:11:34
TRACK 04 AUDIO
TITLE “Revenge Is Sweet”
PERFORMER “Nazareth”
INDEX 00 10:40:39
INDEX 01 10:42:21
TRACK 05 AUDIO
TITLE “Gimme What’s Mine”
PERFORMER “Nazareth”
INDEX 00 13:45:55
INDEX 01 13:47:37
TRACK 06 AUDIO
TITLE “Kentucky Fried Blues”
PERFORMER “Nazareth”
INDEX 00 17:31:29
INDEX 01 17:33:11
TRACK 07 AUDIO
TITLE “New York Broken Toy”
PERFORMER “Nazareth”
INDEX 00 20:39:33
INDEX 01 20:41:15
TRACK 08 AUDIO
TITLE “Busted”
PERFORMER “Nazareth”
INDEX 00 24:18:42
INDEX 01 24:20:24
TRACK 09 AUDIO
TITLE “Place In Your Heart”
PERFORMER “Nazareth”
INDEX 00 27:59:52
INDEX 01 28:01:34
TRACK 10 AUDIO
TITLE “All The King’s Horses”
PERFORMER “Nazareth”
INDEX 00 31:01:47
INDEX 01 31:03:29
TRACK 11 AUDIO
TITLE “Greens [*][B-side]”
PERFORMER “Nazareth”
INDEX 00 35:28:11
INDEX 01 35:32:55
TRACK 12 AUDIO
TITLE “Desolation Road [*][B-side]”
PERFORMER “Nazareth”
INDEX 00 38:21:12
INDEX 01 38:22:69
TRACK 13 AUDIO
TITLE “Gone Dead Train [*][edited version]”
PERFORMER “Nazareth”
INDEX 00 41:20:01
INDEX 01 41:21:58
TRACK 14 AUDIO
TITLE “Expect No Mercy [*][alternate version]”
PERFORMER “Nazareth”
INDEX 00 44:51:47
INDEX 01 44:53:29
TRACK 15 AUDIO
TITLE “Place In Your Heart [*][alternate edited version]”
PERFORMER “Nazareth”
INDEX 00 47:45:73
INDEX 01 47:47:55
TRACK 16 AUDIO
TITLE “Kentucky Fried Blues [*][edited version]”
PERFORMER “Nazareth”
INDEX 00 50:50:19
INDEX 01 50:52:01
TRACK 17 AUDIO
TITLE “Expect No Mercy [*][live version]”
PERFORMER “Nazareth”
INDEX 00 53:39:64
INDEX 01 53:41:46


Spread the Download

Leave a Reply

Your email address will not be published. Required fields are marked *

Enter the text from the image below
 

This site uses Akismet to reduce spam. Learn how your comment data is processed.