Nazareth – Expect No Mercy (Remastered Japanese Edition)




[Total: 0    Average: 0/5]

Artist: Nazareth
Year: 1977/2006
Genre: Rock
Notes: Discogs
Add. Notes: Remastered Japanese Edition
Cover incl.: Yes
Encoder: FLAC
Bitrate: ~900 kBit/s (44.1 kHz/16 Bit/s)
Log & Cue incl.: Yes
Size: 394 MB
Password: “slam” (without ” “)


All Downloads/Hosters are compatible

Download 1
KatFile.com
Turbobit.net
FileFactory.com
Rapidgator.net
Download 2
KatFile.com
Turbobit.net
FileFactory.com
Rapidgator.net

Tracklist:

1 - Expect No Mercy - 3:26
2 - Gone Dead Train - 3:44
3 - Shot Me Down - 3:31
4 - Revenge Is Sweet - 3:05
5 - Gimme What's Mine - 3:46
6 - Kentucky Fried Blues - 3:08
7 - New York Broken Toy - 3:39
8 - Busted - 3:41
9 - Place In Your Heart - 3:02
10 - All The King's Horses - 4:32
Bonus Tracks
11 - Greens - 2:51
12 - Desolation Road - 3:01
13 - Gone Dead Train -Edit Version- - 
3:33
14 - Expect No Mercy -Alternate 
Version- - 2:55
15 - Place In Your Heart -Alternate 
Version- - 3:06
16 - Kentucky Fried Blues -Edit 
Version- - 2:50
17 - Expect No Mercy -Live Version- - 
3:25

EAC-Log, CUE-Sheed & NFO:

Click to open spoiler
Exact Audio Copy V1.0 beta 6 from 9. April 2015

EAC extraction logfile from 23. April 2015, 16:41

Nazareth / Expect No Mercy (AIRAC-1208)

Used drive : PLEXTOR DVDR PX-891SA Adapter: 1 ID: 0

Read mode : Secure
Utilize accurate stream : Yes
Defeat audio cache : Yes
Make use of C2 pointers : No

Read offset correction : 6
Overread into Lead-In and Lead-Out : No
Fill up missing offset samples with silence : Yes
Delete leading and trailing silent blocks : No
Null samples used in CRC calculations : Yes
Used interface : Native Win32 interface for Win NT & 2000

Used output format : User Defined Encoder
Selected bitrate : 1024 kBit/s
Quality : High
Add ID3 tag : No
Command line compressor : C:\Program Files\Exact Audio Copy\Flac\flac.exe
Additional command line options : -V -8 -T “Genre=%genre%” -T “Artist=%artist%” -T “Title=%title%” -T “Album=%albumtitle%” -T “Date=%year%” -T “Tracknumber=%tracknr%” -T “Comment=%comment%” %source%

TOC of the extracted CD

Track | Start | Length | Start sector | End sector
———————————————————
1 | 0:00.00 | 3:26.47 | 0 | 15496
2 | 3:26.47 | 3:44.04 | 15497 | 32300
3 | 7:10.51 | 3:30.66 | 32301 | 48116
4 | 10:41.42 | 3:05.12 | 48117 | 62003
5 | 13:46.54 | 3:45.49 | 62004 | 78927
6 | 17:32.28 | 3:08.09 | 78928 | 93036
7 | 20:40.37 | 3:39.04 | 93037 | 109465
8 | 24:19.41 | 3:41.08 | 109466 | 126048
9 | 28:00.49 | 3:02.00 | 126049 | 139698
10 | 31:02.49 | 4:31.66 | 139699 | 160089
11 | 35:34.40 | 2:51.09 | 160090 | 172923
12 | 38:25.49 | 3:00.70 | 172924 | 186493
13 | 41:26.44 | 3:32.48 | 186494 | 202441
14 | 44:59.17 | 2:55.31 | 202442 | 215597
15 | 47:54.48 | 3:06.14 | 215598 | 229561
16 | 51:00.62 | 2:50.05 | 229562 | 242316
17 | 53:50.67 | 3:24.30 | 242317 | 257646

Range status and errors

Selected range

Filename H:\dafnaplus\Nazareth\1977 Expect No Mercy\Nazareth – Expect No Mercy (AIRAC-1208).wav

Peak level 96.6 %
Extraction speed 8.2 X
Range quality 100.0 %
Test CRC B162B156
Copy CRC B162B156
Copy OK

No errors occurred

AccurateRip summary

Track 1 accurately ripped (confidence 2) [3F2F6C9E] (AR v1)
Track 2 accurately ripped (confidence 2) [E828F90C] (AR v1)
Track 3 accurately ripped (confidence 2) [1BF6D0BE] (AR v1)
Track 4 accurately ripped (confidence 2) [66E4ECF9] (AR v1)
Track 5 accurately ripped (confidence 2) [1C108A19] (AR v1)
Track 6 accurately ripped (confidence 2) [A0262C02] (AR v1)
Track 7 accurately ripped (confidence 2) [9F82F1D0] (AR v1)
Track 8 accurately ripped (confidence 2) [CF3B9922] (AR v1)
Track 9 accurately ripped (confidence 2) [AD9C97C0] (AR v1)
Track 10 accurately ripped (confidence 2) [876D06B4] (AR v1)
Track 11 accurately ripped (confidence 2) [E0E3947F] (AR v1)
Track 12 accurately ripped (confidence 2) [A58821FB] (AR v1)
Track 13 accurately ripped (confidence 2) [0466AC55] (AR v1)
Track 14 accurately ripped (confidence 2) [463D8DD3] (AR v1)
Track 15 accurately ripped (confidence 2) [CBA65B4C] (AR v1)
Track 16 accurately ripped (confidence 2) [EEB8D116] (AR v1)
Track 17 accurately ripped (confidence 2) [DC517FB6] (AR v1)

All tracks accurately ripped

End of status report

—- CUETools DB Plugin V2.1.6

[CTDB TOCID: ubZXY4AyUbfyQFEdp8XGhpz98m0-] found
Submit result: ubZXY4AyUbfyQFEdp8XGhpz98m0- has been confirmed
Track | CTDB Status
1 | (1/1) Accurately ripped
2 | (1/1) Accurately ripped
3 | (1/1) Accurately ripped
4 | (1/1) Accurately ripped
5 | (1/1) Accurately ripped
6 | (1/1) Accurately ripped
7 | (1/1) Accurately ripped
8 | (1/1) Accurately ripped
9 | (1/1) Accurately ripped
10 | (1/1) Accurately ripped
11 | (1/1) Accurately ripped
12 | (1/1) Accurately ripped
13 | (1/1) Accurately ripped
14 | (1/1) Accurately ripped
15 | (1/1) Accurately ripped
16 | (1/1) Accurately ripped
17 | (1/1) Accurately ripped

==== Log checksum 1C35C955878B4F8A9CBBD105FEA9AFA51D38FB6B72570BC0B19C58C7290BA3EE ====
3

REM GENRE Rock
REM DATE 2006
REM DISCID DB0D6B11
REM COMMENT “ExactAudioCopy v1.0b6”
PERFORMER “Nazareth”
TITLE “Expect No Mercy (AIRAC-1208)”
FILE “Nazareth – Expect No Mercy (AIRAC-1208).flac” WAVE
TRACK 01 AUDIO
TITLE “Expect No Mercy”
PERFORMER “Nazareth”
ISRC GBCBR0401415
INDEX 01 00:00:00
TRACK 02 AUDIO
TITLE “Gone Dead Train”
PERFORMER “Nazareth”
ISRC GBCBR0401416
INDEX 01 03:26:47
TRACK 03 AUDIO
TITLE “Shot Me Down”
PERFORMER “Nazareth”
ISRC GBCBR0401417
INDEX 01 07:10:51
TRACK 04 AUDIO
TITLE “Revenge Is Sweet”
PERFORMER “Nazareth”
ISRC GBCBR0401418
INDEX 01 10:41:42
TRACK 05 AUDIO
TITLE “Gimme What’s Mine”
PERFORMER “Nazareth”
ISRC GBCBR0401419
INDEX 01 13:46:54
TRACK 06 AUDIO
TITLE “Kentucky Fried Blues”
PERFORMER “Nazareth”
ISRC GBCBR0401420
INDEX 01 17:32:28
TRACK 07 AUDIO
TITLE “New York Broken Toy”
PERFORMER “Nazareth”
ISRC GBCBR0401421
INDEX 01 20:40:37
TRACK 08 AUDIO
TITLE “Busted”
PERFORMER “Nazareth”
ISRC GBCBR0401422
INDEX 01 24:19:41
TRACK 09 AUDIO
TITLE “Place In Your Heart”
PERFORMER “Nazareth”
ISRC GBCBR0401423
INDEX 01 28:00:49
TRACK 10 AUDIO
TITLE “All The King’s Horses”
PERFORMER “Nazareth”
ISRC GBCBR0401424
INDEX 01 31:02:49
TRACK 11 AUDIO
TITLE “Greens”
PERFORMER “Nazareth”
ISRC GBCBR0402122
INDEX 00 35:29:32
INDEX 01 35:34:40
TRACK 12 AUDIO
TITLE “Desolation Road”
PERFORMER “Nazareth”
ISRC GBCBR0402123
INDEX 01 38:25:49
TRACK 13 AUDIO
TITLE “Gone Dead Train (Edit Version)”
PERFORMER “Nazareth”
ISRC GBCBR0402124
INDEX 01 41:26:44
TRACK 14 AUDIO
TITLE “Expect No Mercy (Alternate Version)”
PERFORMER “Nazareth”
ISRC GBCBR0402125
INDEX 01 44:59:17
TRACK 15 AUDIO
TITLE “Place In Your Heart (Alternate Version)”
PERFORMER “Nazareth”
ISRC GBCBR0402126
INDEX 01 47:54:48
TRACK 16 AUDIO
TITLE “Kentucky Fried Blues (Edit Version)”
PERFORMER “Nazareth”
ISRC GBCBR0402127
INDEX 01 51:00:62
TRACK 17 AUDIO
TITLE “Expect No Mercy (Live Version)”
PERFORMER “Nazareth”
ISRC GBCBR0402128
INDEX 01 53:50:67


Spread the Download

Leave a Reply

Your email address will not be published. Required fields are marked *

Enter the text from the image below
 

This site uses Akismet to reduce spam. Learn how your comment data is processed.