Nazareth – Expect No Mercy (Reissue)




[Total: 0    Average: 0/5]

Artist: Nazareth
Year: 1977/1990
Genre: Rock
Notes: Discogs
Add. Notes: Reissue
Cover incl.: Yes
Encoder: FLAC
Bitrate: ~800 kBit/s (44.1 kHz/16 Bit/s)
Log & Cue incl.: Yes
Size: 311 MB
Password: “slam” (without ” “)


All Downloads/Hosters are compatible

Download 1
Share-online.biz
KatFile.com
Rapidgator.net
Mexa.sh
Download 2
Share-online.biz
KatFile.com
Rapidgator.net
Mexa.sh

Tracklist:

1. Expect No Mercy
2. Gone Dead Train
3. Shot Me Down
4. Revenge Is Sweet
5. Gimme What's Mine
6. Kentucky Fried Blues
7. New York Broken Toy
8. Busted
9. Place In Your Heart
10. All The King's Horses

EAC-Log, CUE-Sheed & NFO:

Click to open spoiler
X Lossless Decoder version 20131102 (145.0)

XLD extraction logfile from 2014-01-25 15:09:06 +0300

Nazareth / Expect No Mercy (CLACD 187)

Used drive : HL-DT-ST DVDRAM GE20NU11 (revision CN01)
Media type : Pressed CD

Ripper mode : XLD Secure Ripper
Disable audio cache : OK for the drive with a cache less than 1375KiB
Make use of C2 pointers : NO
Read offset correction : 667
Max retry count : 20
Gap status : Analyzed, Appended

TOC of the extracted CD
Track | Start | Length | Start sector | End sector
———————————————————
1 | 00:00:32 | 03:27:70 | 32 | 15626
2 | 03:28:27 | 03:45:08 | 15627 | 32509
3 | 07:13:35 | 03:34:32 | 32510 | 48591
4 | 10:47:67 | 03:07:13 | 48592 | 62629
5 | 13:55:05 | 03:45:30 | 62630 | 79534
6 | 17:40:35 | 03:18:55 | 79535 | 94439
7 | 20:59:15 | 03:42:57 | 94440 | 111146
8 | 24:41:72 | 03:46:28 | 111147 | 128124
9 | 28:28:25 | 03:05:70 | 128125 | 142069
10 | 31:34:20 | 04:28:45 | 142070 | 162214

List of alternate offset correction values
# | Absolute | Relative | Confidence
——————————————
1 | -1406 | -2073 | 2
2 | -412 | -1079 | 2

AccurateRip Summary (DiscID: 000d617b-006b25a6-7a08720a)
Track 01 : OK (v1+v2, confidence 16/18)
Track 02 : OK (v1+v2, confidence 16/20)
Track 03 : OK (v1+v2, confidence 17/21)
Track 04 : OK (v1+v2, confidence 16/18)
Track 05 : OK (v1+v2, confidence 16/18)
Track 06 : OK (v1+v2, confidence 16/18)
Track 07 : OK (v1+v2, confidence 16/18)
Track 08 : OK (v1+v2, confidence 16/18)
Track 09 : OK (v1+v2, confidence 16/18)
Track 10 : OK (v1+v2, confidence 16/18)
->All tracks accurately ripped.

All Tracks
Filename : /Nazareth discography/1977. Nazareth – Expect No Mercy (Castle Com., CLACD 187, UK)/Nazareth – Expect No Mercy (CLACD 187).flac
Album gain : -4.18 dB
Peak : 1.000000
CRC32 hash (test run) : FCF5679C
CRC32 hash : FCF5679C
CRC32 hash (skip zero) : E9D19846
Statistics
Read error : 0
Jitter error (maybe fixed) : 0
Retry sector count : 0
Damaged sector count : 0

Track 01
Pre-gap length : 00:02:32

Track gain : -4.16 dB
Peak : 1.000000
CRC32 hash (test run) : 90FA48B6
CRC32 hash : 90FA48B6
CRC32 hash (skip zero) : 61C662FA
AccurateRip v1 signature : AA1426F2
AccurateRip v2 signature : A36C7900
->Accurately ripped (v1+v2, confidence 6+10/18)
Statistics
Read error : 0
Jitter error (maybe fixed) : 0
Retry sector count : 0
Damaged sector count : 0

Track 02
Pre-gap length : 00:01:50

Track gain : -3.50 dB
Peak : 1.000000
CRC32 hash (test run) : 0320191D
CRC32 hash : 0320191D
CRC32 hash (skip zero) : D0033148
AccurateRip v1 signature : C6B0D62B
AccurateRip v2 signature : 26C71988
->Accurately ripped (v1+v2, confidence 6+10/20)
Statistics
Read error : 0
Jitter error (maybe fixed) : 0
Retry sector count : 0
Damaged sector count : 0

Track 03
Pre-gap length : 00:02:13

Track gain : -3.47 dB
Peak : 1.000000
CRC32 hash (test run) : E3E3F3FE
CRC32 hash : E3E3F3FE
CRC32 hash (skip zero) : B2041412
AccurateRip v1 signature : 171F9DB7
AccurateRip v2 signature : 60D6A364
->Accurately ripped (v1+v2, confidence 7+10/21)
Statistics
Read error : 0
Jitter error (maybe fixed) : 0
Retry sector count : 0
Damaged sector count : 0

Track 04
Pre-gap length : 00:03:57

Track gain : -3.91 dB
Peak : 0.990967
CRC32 hash (test run) : 2108FA63
CRC32 hash : 2108FA63
CRC32 hash (skip zero) : 08463496
AccurateRip v1 signature : 3EFA0B75
AccurateRip v2 signature : A1ADB18B
->Accurately ripped (v1+v2, confidence 6+10/18)
Statistics
Read error : 0
Jitter error (maybe fixed) : 0
Retry sector count : 0
Damaged sector count : 0

Track 05
Pre-gap length : 00:02:38

Track gain : -5.04 dB
Peak : 1.000000
CRC32 hash (test run) : 499B9493
CRC32 hash : 499B9493
CRC32 hash (skip zero) : 6179AB9E
AccurateRip v1 signature : DB4CAF6F
AccurateRip v2 signature : C110CE50
->Accurately ripped (v1+v2, confidence 6+10/18)
Statistics
Read error : 0
Jitter error (maybe fixed) : 0
Retry sector count : 0
Damaged sector count : 0

Track 06
Pre-gap length : 00:01:20

Track gain : -4.69 dB
Peak : 0.999969
CRC32 hash (test run) : A97E02C2
CRC32 hash : A97E02C2
CRC32 hash (skip zero) : B52876D2
AccurateRip v1 signature : 91C0E177
AccurateRip v2 signature : DA2ED1EC
->Accurately ripped (v1+v2, confidence 6+10/18)
Statistics
Read error : 0
Jitter error (maybe fixed) : 0
Retry sector count : 0
Damaged sector count : 0

Track 07
Pre-gap length : 00:05:13

Track gain : -4.48 dB
Peak : 0.986420
CRC32 hash (test run) : ED4ABD21
CRC32 hash : ED4ABD21
CRC32 hash (skip zero) : FF4FEF64
AccurateRip v1 signature : 7B654DB8
AccurateRip v2 signature : 5D83247D
->Accurately ripped (v1+v2, confidence 6+10/18)
Statistics
Read error : 0
Jitter error (maybe fixed) : 0
Retry sector count : 0
Damaged sector count : 0

Track 08
Pre-gap length : 00:04:50

Track gain : -2.49 dB
Peak : 0.954742
CRC32 hash (test run) : 0A88F645
CRC32 hash : 0A88F645
CRC32 hash (skip zero) : EB7FA48B
AccurateRip v1 signature : 3C33762F
AccurateRip v2 signature : 5037D268
->Accurately ripped (v1+v2, confidence 6+10/18)
Statistics
Read error : 0
Jitter error (maybe fixed) : 0
Retry sector count : 0
Damaged sector count : 0

Track 09
Pre-gap length : 00:05:15

Track gain : -4.27 dB
Peak : 0.937225
CRC32 hash (test run) : 5335C3C9
CRC32 hash : 5335C3C9
CRC32 hash (skip zero) : C42BDCEE
AccurateRip v1 signature : 8482149E
AccurateRip v2 signature : 4DDF9156
->Accurately ripped (v1+v2, confidence 6+10/18)
Statistics
Read error : 0
Jitter error (maybe fixed) : 0
Retry sector count : 0
Damaged sector count : 0

Track 10
Pre-gap length : 00:05:18

Track gain : -3.79 dB
Peak : 0.978973
CRC32 hash (test run) : 10D2B761
CRC32 hash : 10D2B761
CRC32 hash (skip zero) : 49C5A36A
AccurateRip v1 signature : 7B25590D
AccurateRip v2 signature : 3241393D
->Accurately ripped (v1+v2, confidence 6+10/18)
Statistics
Read error : 0
Jitter error (maybe fixed) : 0
Retry sector count : 0
Damaged sector count : 0

No errors occurred

End of status report

—–BEGIN XLD SIGNATURE—–
llV43X8J4NS1T0jIXiNiavAEbyz5rNMWRO3X2C4J3x1L8i2baF2PuX9l5NfUbSSkrv2lySb.JDpcro7Ue6pmiac98K6n4fLO3_kpUR4
—–END XLD SIGNATURE—–

TITLE “Expect No Mercy (CLACD 187)”
PERFORMER “Nazareth”
REM GENRE “Hard-Rock”
REM DATE “1977”
REM DISCID 7A08720A
REM REPLAYGAIN_ALBUM_GAIN -4.18 dB
REM REPLAYGAIN_ALBUM_PEAK 1.000000
FILE “Nazareth – Expect No Mercy (CLACD 187).flac” WAVE
TRACK 01 AUDIO
TITLE “Expect No Mercy”
PERFORMER “Nazareth”
REM REPLAYGAIN_TRACK_GAIN -4.16 dB
REM REPLAYGAIN_TRACK_PEAK 1.000000
INDEX 00 00:00:00
INDEX 01 00:00:32
TRACK 02 AUDIO
TITLE “Gone Dead Train”
PERFORMER “Nazareth”
REM REPLAYGAIN_TRACK_GAIN -3.50 dB
REM REPLAYGAIN_TRACK_PEAK 1.000000
INDEX 00 03:26:52
INDEX 01 03:28:27
TRACK 03 AUDIO
TITLE “Shot Me Down”
PERFORMER “Nazareth”
REM REPLAYGAIN_TRACK_GAIN -3.47 dB
REM REPLAYGAIN_TRACK_PEAK 1.000000
INDEX 00 07:11:22
INDEX 01 07:13:35
TRACK 04 AUDIO
TITLE “Revenge Is Sweet”
PERFORMER “Nazareth”
REM REPLAYGAIN_TRACK_GAIN -3.91 dB
REM REPLAYGAIN_TRACK_PEAK 0.990967
INDEX 00 10:44:10
INDEX 01 10:47:67
TRACK 05 AUDIO
TITLE “Gimme What’s Mine”
PERFORMER “Nazareth”
REM REPLAYGAIN_TRACK_GAIN -5.04 dB
REM REPLAYGAIN_TRACK_PEAK 1.000000
INDEX 00 13:52:42
INDEX 01 13:55:05
TRACK 06 AUDIO
TITLE “Kentucky Fried Blues”
PERFORMER “Nazareth”
REM REPLAYGAIN_TRACK_GAIN -4.69 dB
REM REPLAYGAIN_TRACK_PEAK 0.999969
INDEX 00 17:39:15
INDEX 01 17:40:35
TRACK 07 AUDIO
TITLE “New York Broken Toy”
PERFORMER “Nazareth”
REM REPLAYGAIN_TRACK_GAIN -4.48 dB
REM REPLAYGAIN_TRACK_PEAK 0.986420
INDEX 00 20:54:02
INDEX 01 20:59:15
TRACK 08 AUDIO
TITLE “Busted”
PERFORMER “Nazareth”
REM REPLAYGAIN_TRACK_GAIN -2.49 dB
REM REPLAYGAIN_TRACK_PEAK 0.954742
INDEX 00 24:37:22
INDEX 01 24:41:72
TRACK 09 AUDIO
TITLE “Place in Your Heart”
PERFORMER “Nazareth”
REM REPLAYGAIN_TRACK_GAIN -4.27 dB
REM REPLAYGAIN_TRACK_PEAK 0.937225
INDEX 00 28:23:10
INDEX 01 28:28:25
TRACK 10 AUDIO
TITLE “All the Kings Horses”
PERFORMER “Nazareth”
REM REPLAYGAIN_TRACK_GAIN -3.79 dB
REM REPLAYGAIN_TRACK_PEAK 0.978973
INDEX 00 31:29:02
INDEX 01 31:34:20


Spread the Download

Leave a Reply

Your email address will not be published. Required fields are marked *

Enter the text from the image below
 

This site uses Akismet to reduce spam. Learn how your comment data is processed.