Nazareth – Exercises (Remastered)




Artist: Nazareth
Year: 1972/2002
Genre: Rock
Notes: Discogs
Add. Notes: Remastered
Cover incl.: Yes
Encoder: FLAC
Bitrate: ~900 kBit/s (44.1 kHz/16 Bit/s)
Log & Cue incl.: Yes
Size: 465,25 MB
Password: “slam” (without ” “)


All Downloads/Hosters are compatible

Download 1
Turbobit.net
NitroFlare.com
KatFile.com
Rapidgator.net
Download 2
Turbobit.net
NitroFlare.com
KatFile.com
Rapidgator.net

Tracklist:

1. I Will Not Be Led 	
2. Cat's Eye, Apple Pie 	
3. In My Time 	
4. Woke Up This Morning 	
5. Called Her Name 	
6. Fool About You 	
7. Love Now You're Gone 	
8. Madelaine 	
9. Sad Song 	
10. 1692 (Glencoe Massacre) 	
Bonus Tracks
11. If You See My Baby (B-Side) 	
12. Woke Up This Morning (Alternate Edit) 	
13. Love Now You're Gone (Alternate Edit) 	
14. 1692 (Glencoe Massacre) (Alternate Edit)

EAC-Log, CUE-Sheed & NFO:

Click to open spoiler
Exact Audio Copy V1.1 from 23. June 2015

Отчёт EAC об извлечении, выполненном 16. августа 2016, 22:55

Nazareth / Exercises

Дисковод: TSSTcorpBDDVDW SE-506BB Adapter: 1 ID: 1

Режим чтения : Достоверность
Использование точного потока : Да
Отключение кэша аудио : Да
Использование указателей C2 : Нет

Коррекция смещения при чтении : 6
Способность читать области Lead-in и Lead-out : Нет
Заполнение пропущенных сэмплов тишиной : Да
Удаление блоков с тишиной в начале и конце : Нет
При вычислениях CRC использовались нулевые сэмплы : Да
Интерфейс : Встроенный Win32-интерфейс для Win NT/2000

Выходной формат : Внутренние WAV-операции
Формат сэмплов : 44.100 Гц; 16 бит; стерео

TOC извлечённого CD

Трек | Старт | Длительность | Начальный сектор | Конечный сектор
———————————————————————
1 | 0:00.00 | 3:05.47 | 0 | 13921
2 | 3:05.47 | 3:01.52 | 13922 | 27548
3 | 6:07.24 | 3:28.31 | 27549 | 43179
4 | 9:35.55 | 3:14.54 | 43180 | 57783
5 | 12:50.34 | 4:24.66 | 57784 | 77649
6 | 17:15.25 | 2:46.16 | 77650 | 90115
7 | 20:01.41 | 2:26.07 | 90116 | 101072
8 | 22:27.48 | 5:54.68 | 101073 | 127690
9 | 28:22.41 | 2:13.53 | 127691 | 137718
10 | 30:36.19 | 4:02.09 | 137719 | 155877
11 | 34:38.28 | 2:56.15 | 155878 | 169092
12 | 37:34.43 | 3:30.12 | 169093 | 184854
13 | 41:04.55 | 3:15.18 | 184855 | 199497
14 | 44:19.73 | 3:21.16 | 199498 | 214588

Характеристики диапазона извлечения и сообщения об ошибках

Выбранный диапазон

Имя файла D:\Temp\Nazareth – 1972 – Exercises [2002 Eagle Records, EAMCD146].wav

Пиковый уровень 100.0 %
Скорость извлечения 4.2 X
Качество диапазона 99.9 %
CRC теста 919AEA48
CRC копии 919AEA48
Копирование… OK

Ошибок не произошло

AccurateRip: сводка

Трек 1 : извлечено точно (доверие 6) [29C577ED] (AR v2)
Трек 2 : извлечено точно (доверие 6) [03B72954] (AR v2)
Трек 3 : извлечено точно (доверие 6) [FCCC1538] (AR v2)
Трек 4 : извлечено точно (доверие 6) [75759C13] (AR v2)
Трек 5 : извлечено точно (доверие 6) [9030EB4D] (AR v2)
Трек 6 : извлечено точно (доверие 6) [221AF096] (AR v2)
Трек 7 : извлечено точно (доверие 6) [FCA92D36] (AR v2)
Трек 8 : извлечено точно (доверие 6) [9289ED26] (AR v2)
Трек 9 : извлечено точно (доверие 6) [E5AEE5F6] (AR v2)
Трек 10 : извлечено точно (доверие 6) [44602315] (AR v2)
Трек 11 : извлечено точно (доверие 5) [0AA82F1A] (AR v2)
Трек 12 : извлечено точно (доверие 4) [525467E2] (AR v2)
Трек 13 : извлечено точно (доверие 4) [7530B64F] (AR v2)
Трек 14 : извлечено точно (доверие 4) [ACBDC616] (AR v2)

Все треки извлечены точно

Конец отчёта

==== Контрольная сумма отчёта ECD682EDDE24750AA93D97B691EDADA9D8EFA2915D5D558B909C42B65BDF2059 ====

REM GENRE “Hard Rock”
REM DATE 1972
REM DISCID C30B2D0E
REM COMMENT “ExactAudioCopy v1.1”
PERFORMER “Nazareth”
TITLE “Exercises”
FILE “Nazareth – 1972 – Exercises [2002 Eagle Records, EAMCD146].flac” WAVE
TRACK 01 AUDIO
TITLE “I Will Not Be Led”
PERFORMER “Nazareth”
INDEX 01 00:00:00
TRACK 02 AUDIO
TITLE “Cat’s Eye, Apple Pie”
PERFORMER “Nazareth”
INDEX 00 03:04:01
INDEX 01 03:05:47
TRACK 03 AUDIO
TITLE “In My Time”
PERFORMER “Nazareth”
INDEX 01 06:07:24
TRACK 04 AUDIO
TITLE “Woke Up This Morning”
PERFORMER “Nazareth”
INDEX 01 09:35:55
TRACK 05 AUDIO
TITLE “Called Her Name”
PERFORMER “Nazareth”
INDEX 01 12:50:34
TRACK 06 AUDIO
TITLE “Fool About You”
PERFORMER “Nazareth”
INDEX 01 17:15:25
TRACK 07 AUDIO
TITLE “Love Now You’re Gone”
PERFORMER “Nazareth”
INDEX 00 20:00:70
INDEX 01 20:01:41
TRACK 08 AUDIO
TITLE “Madelaine”
PERFORMER “Nazareth”
INDEX 00 22:25:35
INDEX 01 22:27:48
TRACK 09 AUDIO
TITLE “Sad Song”
PERFORMER “Nazareth”
INDEX 00 28:21:48
INDEX 01 28:22:41
TRACK 10 AUDIO
TITLE “1692 (Glencoe Massacre)”
PERFORMER “Nazareth”
INDEX 00 30:35:12
INDEX 01 30:36:19
TRACK 11 AUDIO
TITLE “If You See My Baby [*][B-side]”
PERFORMER “Nazareth”
INDEX 00 34:30:05
INDEX 01 34:38:28
TRACK 12 AUDIO
TITLE “Woke Up This Morning [*][alternate edit]”
PERFORMER “Nazareth”
INDEX 00 37:34:26
INDEX 01 37:34:43
TRACK 13 AUDIO
TITLE “Love Now You’re Gone [*][alternate edit]”
PERFORMER “Nazareth”
INDEX 00 41:02:53
INDEX 01 41:04:55
TRACK 14 AUDIO
TITLE “1692 (Glencoe Massacre) [*][alternate edit]”
PERFORMER “Nazareth”
INDEX 00 44:17:41
INDEX 01 44:19:73


Leave a Reply

Your email address will not be published. Required fields are marked *

This site uses Akismet to reduce spam. Learn how your comment data is processed.