Nazareth – Close Enough For Rock’n’Roll (Remastered Japanese Edition)




Artist: Nazareth
Year: 1976/2006
Genre: Rock
Notes: Discogs
Add. Notes: Remastered Japanese Edition
Cover incl.: Yes
Encoder: FLAC
Bitrate: ~900 kBit/s (44.1 kHz/16 Bit/s)
Log & Cue incl.: Yes
Size: 480 MB
Password: “slam” (without ” “)


All Downloads/Hosters are compatible

Download 1
KatFile.com
Rapidgator.net
Turbobit.net
FileFactory.com
Download 2
KatFile.com
Rapidgator.net
Turbobit.net
FileFactory.com

Tracklist:

1 - Telegram Part 1: On Your Way - 
3:06
2 - Telegram Part 2: So You Want To 
Be A Rock 'N' Roll 
Star - 0:25
3 - Telegram Part 3: Sound Check - 
2:23
4 - Telegram Part 4: Here We Are 
Again - 1:56
5 - Vicki - 2:25
6 - Homesick Again - 4:31
7 - Vancouver Shakedown - 4:03
8 - Born Under The Wrong Sign - 
3:58
9 - Loretta - 3:19
10 - Carry Out Feelings - 3:19
11 - Lift The Lid - 3:54
12 - You're The Violin - 2:52
Bonus Tracks
13 - My White Bicycle - 5:20
14 - You're The Violin -Edit Single 
Version- - 3:37
15 - Loretta -Alternate Version- - 
2:39
16 - Carry Out Feelings -US 
Version- - 3:19
17 - Lift The Lid -Alternate Single 
Version- - 3:31
18 - My White Bicycle -Original 
Version- - 3:28
19 - Telegram -Edit Version- - 4:34

EAC-Log, CUE-Sheed & NFO:

Click to open spoiler
Exact Audio Copy V1.0 beta 6 from 9. April 2015

EAC extraction logfile from 23. April 2015, 6:19

Nazareth / Close Enough For Rock’n’Roll (AIRAC-1206)

Used drive : PLEXTOR DVDR PX-891SA Adapter: 1 ID: 0

Read mode : Secure
Utilize accurate stream : Yes
Defeat audio cache : Yes
Make use of C2 pointers : No

Read offset correction : 6
Overread into Lead-In and Lead-Out : No
Fill up missing offset samples with silence : Yes
Delete leading and trailing silent blocks : No
Null samples used in CRC calculations : Yes
Used interface : Native Win32 interface for Win NT & 2000

Used output format : User Defined Encoder
Selected bitrate : 1024 kBit/s
Quality : High
Add ID3 tag : No
Command line compressor : C:\Program Files\Exact Audio Copy\Flac\flac.exe
Additional command line options : -V -8 -T “Genre=%genre%” -T “Artist=%artist%” -T “Title=%title%” -T “Album=%albumtitle%” -T “Date=%year%” -T “Tracknumber=%tracknr%” -T “Comment=%comment%” %source%

TOC of the extracted CD

Track | Start | Length | Start sector | End sector
———————————————————
1 | 0:00.00 | 3:06.23 | 0 | 13972
2 | 3:06.23 | 0:25.33 | 13973 | 15880
3 | 3:31.56 | 2:22.38 | 15881 | 26568
4 | 5:54.19 | 1:56.30 | 26569 | 35298
5 | 7:50.49 | 2:24.49 | 35299 | 46147
6 | 10:15.23 | 4:30.57 | 46148 | 66454
7 | 14:46.05 | 4:03.26 | 66455 | 84705
8 | 18:49.31 | 3:57.50 | 84706 | 102530
9 | 22:47.06 | 3:19.51 | 102531 | 117506
10 | 26:06.57 | 3:19.10 | 117507 | 132441
11 | 29:25.67 | 3:53.50 | 132442 | 149966
12 | 33:19.42 | 4:51.57 | 149967 | 171848
13 | 38:11.24 | 5:20.26 | 171849 | 195874
14 | 43:31.50 | 3:36.41 | 195875 | 212115
15 | 47:08.16 | 2:39.01 | 212116 | 224041
16 | 49:47.17 | 3:19.45 | 224042 | 239011
17 | 53:06.62 | 3:31.08 | 239012 | 254844
18 | 56:37.70 | 3:27.74 | 254845 | 270443
19 | 60:05.69 | 4:33.36 | 270444 | 290954

Range status and errors

Selected range

Filename H:\dafnaplus\Nazareth\1976 Close Enough For Rock’n’Roll\Nazareth – Close Enough For Rock’n’Roll (AIRAC-1206).wav

Peak level 96.6 %
Extraction speed 9.0 X
Range quality 99.9 %
Test CRC E84051EE
Copy CRC E84051EE
Copy OK

No errors occurred

AccurateRip summary

Track 1 accurately ripped (confidence 2) [5C0505D0] (AR v2)
Track 2 accurately ripped (confidence 2) [68038FBC] (AR v2)
Track 3 accurately ripped (confidence 2) [3049BE19] (AR v2)
Track 4 accurately ripped (confidence 2) [1E67D87D] (AR v2)
Track 5 accurately ripped (confidence 2) [4901E735] (AR v2)
Track 6 accurately ripped (confidence 2) [F05EACE8] (AR v2)
Track 7 accurately ripped (confidence 3) [EEB22358] (AR v1)
Track 8 accurately ripped (confidence 3) [7FC58993] (AR v1)
Track 9 accurately ripped (confidence 3) [61EA1F4C] (AR v1)
Track 10 accurately ripped (confidence 3) [6E3274BC] (AR v1)
Track 11 accurately ripped (confidence 3) [C77CA34E] (AR v1)
Track 12 accurately ripped (confidence 3) [D1B52731] (AR v1)
Track 13 accurately ripped (confidence 3) [81FE5B63] (AR v1)
Track 14 accurately ripped (confidence 2) [45C68727] (AR v2)
Track 15 accurately ripped (confidence 3) [524F1514] (AR v1)
Track 16 accurately ripped (confidence 3) [D3B47D68] (AR v1)
Track 17 accurately ripped (confidence 3) [6D7E2181] (AR v1)
Track 18 accurately ripped (confidence 3) [79A0CDCD] (AR v1)
Track 19 accurately ripped (confidence 2) [E5A638D7] (AR v1)

All tracks accurately ripped

End of status report

—- CUETools DB Plugin V2.1.6

[CTDB TOCID: PyaQVHRTpyvgbRh7fSL7YspiK1s-] disk not present in database
Submit result: PyaQVHRTpyvgbRh7fSL7YspiK1s- has been uploaded

==== Log checksum A8893EA3CCAE8C56233263F2D7C331DF5836B6F758DFD5CDAD2FEEF208998C2B ====

REM GENRE Rock
REM DATE 2006
REM DISCID 210F2713
REM COMMENT “ExactAudioCopy v1.0b6”
PERFORMER “Nazareth”
TITLE “Close Enough For Rock’n’Roll (AIRAC-1206)”
FILE “Nazareth – Close Enough For Rock’n’Roll (AIRAC-1206).flac” WAVE
TRACK 01 AUDIO
TITLE “Telegram Part 1: On Your Way”
PERFORMER “Nazareth”
ISRC GBCBR0402539
INDEX 01 00:00:00
TRACK 02 AUDIO
TITLE “Telegram Part 2: So You Want To Be A Rock ‘N’ Roll Star”
PERFORMER “Nazareth”
ISRC GBCBR0402539
INDEX 01 03:06:23
TRACK 03 AUDIO
TITLE “Telegram Part 3: Soun Check”
PERFORMER “Nazareth”
ISRC GBCBR0402539
INDEX 01 03:31:56
TRACK 04 AUDIO
TITLE “Telegram Part 4: Here We Are Again”
PERFORMER “Nazareth”
ISRC GBCBR0402539
INDEX 01 05:54:19
TRACK 05 AUDIO
TITLE “Vicki”
PERFORMER “Nazareth”
ISRC GBCBR0402540
INDEX 01 07:50:49
TRACK 06 AUDIO
TITLE “Homesick Again”
PERFORMER “Nazareth”
ISRC GBCBR0402541
INDEX 01 10:15:23
TRACK 07 AUDIO
TITLE “Vancouver Shakedown”
PERFORMER “Nazareth”
ISRC GBCBR0402542
INDEX 01 14:46:05
TRACK 08 AUDIO
TITLE “Born Under The Wrong Sign”
PERFORMER “Nazareth”
ISRC GBCBR0402543
INDEX 01 18:49:31
TRACK 09 AUDIO
TITLE “Loretta”
PERFORMER “Nazareth”
ISRC GBCBR0402544
INDEX 01 22:47:06
TRACK 10 AUDIO
TITLE “Carry Out Feelings”
PERFORMER “Nazareth”
ISRC GBCBR0402545
INDEX 01 26:06:57
TRACK 11 AUDIO
TITLE “Lift The Lid”
PERFORMER “Nazareth”
ISRC GBCBR0402546
INDEX 01 29:25:67
TRACK 12 AUDIO
TITLE “You’re The Violin”
PERFORMER “Nazareth”
ISRC GBCBR0402547
INDEX 01 33:19:42
TRACK 13 AUDIO
TITLE “My White Bicycle (Bonus Track)”
PERFORMER “Nazareth”
ISRC GBCBR0402548
INDEX 00 38:06:07
INDEX 01 38:11:24
TRACK 14 AUDIO
TITLE “You’re The Violin (Bonus Track, Edit Single Version)”
PERFORMER “Nazareth”
ISRC GBCBR0402549
INDEX 01 43:31:50
TRACK 15 AUDIO
TITLE “Loretta (Bonus Track, Alternate Version)”
PERFORMER “Nazareth”
ISRC GBCBR0402550
INDEX 01 47:08:16
TRACK 16 AUDIO
TITLE “Carry Out Feelings (Bonus Track, U.S. Version)”
PERFORMER “Nazareth”
ISRC GBCBR0402551
INDEX 01 49:47:17
TRACK 17 AUDIO
TITLE “Lift The Lid (Bonus Track, Alternate Single Version)”
PERFORMER “Nazareth”
ISRC GBCBR0402552
INDEX 01 53:06:62
TRACK 18 AUDIO
TITLE “My White Bicycle (Bonus Track, Original Version)”
PERFORMER “Nazareth”
ISRC GBCBR0402553
INDEX 01 56:37:70
TRACK 19 AUDIO
TITLE “Telegram (Bonus Track, Edit Version)”
PERFORMER “Nazareth”
ISRC GBCBR0402554
INDEX 01 60:05:69


Leave a Reply

Your email address will not be published. Required fields are marked *

Enter the text from the image below
 

This site uses Akismet to reduce spam. Learn how your comment data is processed.