Nazareth – Close Enough For Rock ‘N’ Roll (Remastered)




[Total: 0    Average: 0/5]

Artist: Nazareth
Year: 1976/2002
Genre: Rock
Notes: Discogs
Add. Notes: Remastered
Cover incl.: Yes
Encoder: FLAC
Bitrate: ~1000 kBit/s (44.1 kHz/16 Bit/s)
Log & Cue incl.: Yes
Size: 601,24 MB
Password: “slam” (without ” “)


All Downloads/Hosters are compatible

Download 1
Share-online.biz
KatFile.com
Rapidgator.net
Download 2
Share-online.biz
KatFile.com
Rapidgator.net

Tracklist:

1 - Telegram Part 1: On Your Way - 3:06
2 - Telegram Part 2: So You Want To Be A Rock 'N' Roll 
Star - 0:25
3 - Telegram Part 3: Sound Check - 2:23
4 - Telegram Part 4: Here We Are Again - 1:56
5 - Vicki - 2:25
6 - Homesick Again - 4:31
7 - Vancouver Shakedown - 4:03
8 - Born Under The Wrong Sign - 3:58
9 - Loretta - 3:19
10 - Carry Out Feelings - 3:19
11 - Lift The Lid - 3:54
12 - You're The Violin - 2:52
	Bonus Tracks
13 - My White Bicycle - 5:20
14 - You're The Violin (Edit Single Version) - 3:37
15 - Loretta (Alternate Version) - 2:39
16 - Carry Out Feelings (US Version) - 3:19
17 - Lift The Lid (Alternate Single Version) - 3:31
18 - My White Bicycle (Original Version) - 3:28
19 - Telegram (Edit Version) - 4:34

EAC-Log, CUE-Sheed & NFO:

Click to open spoiler
Exact Audio Copy V1.1 from 23. June 2015

Отчёт EAC об извлечении, выполненном 17. августа 2016, 15:29

Nazareth / Close Enough For Rock’n’Roll

Дисковод: TSSTcorpBDDVDW SE-506BB Adapter: 1 ID: 1

Режим чтения : Достоверность
Использование точного потока : Да
Отключение кэша аудио : Да
Использование указателей C2 : Нет

Коррекция смещения при чтении : 6
Способность читать области Lead-in и Lead-out : Нет
Заполнение пропущенных сэмплов тишиной : Да
Удаление блоков с тишиной в начале и конце : Нет
При вычислениях CRC использовались нулевые сэмплы : Да
Интерфейс : Встроенный Win32-интерфейс для Win NT/2000

Выходной формат : Внутренние WAV-операции
Формат сэмплов : 44.100 Гц; 16 бит; стерео

TOC извлечённого CD

Трек | Старт | Длительность | Начальный сектор | Конечный сектор
———————————————————————
1 | 0:00.00 | 7:54.10 | 0 | 35559
2 | 7:54.10 | 2:24.17 | 35560 | 46376
3 | 10:18.27 | 4:31.14 | 46377 | 66715
4 | 14:49.41 | 4:03.33 | 66716 | 84973
5 | 18:52.74 | 3:57.48 | 84974 | 102796
6 | 22:50.47 | 3:19.49 | 102797 | 117770
7 | 26:10.21 | 3:19.06 | 117771 | 132701
8 | 29:29.27 | 3:53.50 | 132702 | 150226
9 | 33:23.02 | 4:47.46 | 150227 | 171797
10 | 38:10.48 | 5:21.21 | 171798 | 195893
11 | 43:31.69 | 3:35.29 | 195894 | 212047
12 | 47:07.23 | 2:36.40 | 212048 | 223787
13 | 49:43.63 | 3:18.32 | 223788 | 238669
14 | 53:02.20 | 3:29.05 | 238670 | 254349
15 | 56:31.25 | 3:28.02 | 254350 | 269951
16 | 59:59.27 | 4:28.26 | 269952 | 290077

Характеристики диапазона извлечения и сообщения об ошибках

Выбранный диапазон

Имя файла D:\Temp\Nazareth – 1976 – Close Enough For Rock’n’Roll [2002 Eagle Records, EAMCD138].wav

Пиковый уровень 100.0 %
Скорость извлечения 4.8 X
Качество диапазона 100.0 %
CRC теста 3C1DBC4E
CRC копии 3C1DBC4E
Копирование… OK

Ошибок не произошло

AccurateRip: сводка

Трек 1 : извлечено точно (доверие 12) [D71E1050] (AR v2)
Трек 2 : извлечено точно (доверие 11) [129490BE] (AR v2)
Трек 3 : извлечено точно (доверие 11) [87417F45] (AR v2)
Трек 4 : извлечено точно (доверие 12) [8FFCA17D] (AR v2)
Трек 5 : извлечено точно (доверие 12) [82FFB729] (AR v2)
Трек 6 : извлечено точно (доверие 12) [EABB0DEA] (AR v2)
Трек 7 : извлечено точно (доверие 12) [12BAB785] (AR v2)
Трек 8 : извлечено точно (доверие 12) [01B1ACDC] (AR v2)
Трек 9 : извлечено точно (доверие 12) [D6C0DACA] (AR v2)
Трек 10 : извлечено точно (доверие 11) [8B16BC17] (AR v2)
Трек 11 : извлечено точно (доверие 9) [CBE7AE86] (AR v2)
Трек 12 : извлечено точно (доверие 9) [F842FA9E] (AR v2)
Трек 13 : извлечено точно (доверие 9) [B701F86D] (AR v2)
Трек 14 : извлечено точно (доверие 9) [A2DC8D2A] (AR v2)
Трек 15 : извлечено точно (доверие 9) [CB4E782A] (AR v2)
Трек 16 : извлечено точно (доверие 8) [502BE792] (AR v2)

Все треки извлечены точно

Конец отчёта

==== Контрольная сумма отчёта 236F1D15C79BD863D9315422D36AAC01E1F95DB787A131754D2D499A6546CD32 ====

REM GENRE “Hard Rock”
REM DATE 1976
REM DISCID DD0F1B10
REM COMMENT “ExactAudioCopy v1.1”
PERFORMER “Nazareth”
TITLE “Close Enough For Rock’n’Roll”
FILE “Nazareth – 1976 – Close Enough For Rock’n’Roll [2002 Eagle Records, EAMCD138].flac” WAVE
TRACK 01 AUDIO
TITLE “Telegram (Parts 1-4)”
PERFORMER “Nazareth”
INDEX 01 00:00:00
INDEX 02 03:09:25
INDEX 03 03:34:59
INDEX 04 05:57:26
TRACK 02 AUDIO
TITLE “Vicki”
PERFORMER “Nazareth”
INDEX 01 07:54:10
TRACK 03 AUDIO
TITLE “Homesick Again”
PERFORMER “Nazareth”
INDEX 01 10:18:27
TRACK 04 AUDIO
TITLE “Vancouver Shakedown”
PERFORMER “Nazareth”
INDEX 01 14:49:41
TRACK 05 AUDIO
TITLE “Born Under The Wrong Side”
PERFORMER “Nazareth”
INDEX 01 18:52:74
TRACK 06 AUDIO
TITLE “Loretta”
PERFORMER “Nazareth”
INDEX 00 22:49:43
INDEX 01 22:50:47
TRACK 07 AUDIO
TITLE “Carry Out Feelings”
PERFORMER “Nazareth”
INDEX 00 26:09:23
INDEX 01 26:10:21
TRACK 08 AUDIO
TITLE “Lift The Lid”
PERFORMER “Nazareth”
INDEX 00 29:27:74
INDEX 01 29:29:27
TRACK 09 AUDIO
TITLE “You’re The Violin”
PERFORMER “Nazareth”
INDEX 00 33:22:11
INDEX 01 33:23:02
TRACK 10 AUDIO
TITLE “My White Bicycle [*][single]”
PERFORMER “Nazareth”
INDEX 00 38:05:64
INDEX 01 38:10:48
TRACK 11 AUDIO
TITLE “You’re The Violin [*][edited A-side]”
PERFORMER “Nazareth”
INDEX 00 43:30:12
INDEX 01 43:31:69
TRACK 12 AUDIO
TITLE “Loretta [*][alternate single version]”
PERFORMER “Nazareth”
INDEX 00 47:05:41
INDEX 01 47:07:23
TRACK 13 AUDIO
TITLE “Carry Out Feelings [*][US single edit]”
PERFORMER “Nazareth”
INDEX 00 49:42:06
INDEX 01 49:43:63
TRACK 14 AUDIO
TITLE “Lift The Lid [*][alternate single version]”
PERFORMER “Nazareth”
INDEX 00 53:00:38
INDEX 01 53:02:20
TRACK 15 AUDIO
TITLE “My White Bicycle [*][orginal single version]”
PERFORMER “Nazareth”
INDEX 00 56:29:43
INDEX 01 56:31:25
TRACK 16 AUDIO
TITLE “Telegram [*][edited version]”
PERFORMER “Nazareth”
INDEX 00 59:57:45
INDEX 01 59:59:27


Spread the Download

Leave a Reply

Your email address will not be published. Required fields are marked *

Enter the text from the image below
 

This site uses Akismet to reduce spam. Learn how your comment data is processed.