Nazareth – Close Enough For Rock ‘n’ Roll (Reissue)




[Total: 0    Average: 0/5]

Artist: Nazareth
Year: 1976/1990
Genre: Rock
Notes: Discogs
Add. Notes: Reissue
Cover incl.: Yes
Encoder: FLAC
Bitrate: ~800 kBit/s (44.1 kHz/16 Bit/s)
Log & Cue incl.: Yes
Size: 267 MB
Password: “slam” (without ” “)


All Downloads/Hosters are compatible

Download 1
Share-online.biz
KatFile.com
Rapidgator.net
Mexa.sh
Download 2
Share-online.biz
KatFile.com
Rapidgator.net
Mexa.sh

Tracklist:

1a - Part 1 On Our Way - 3:05
1b - Part 2 So You Want To Be A 
Rock 'N' Roll Star - 1:00
1c - Part 3 Sound Check - 1:50
1d - Part 4 Here We Are Again - 1:50
2 - Vicki (Instrumental) - 2:24
3 - Homesick Again - 4:30
4 - Vancouver Shakedown - 4:07
5 - Born Under The Wrong Sign - 
3:56
6 - Loretta - 3:17
7 - Carry Out Feelings - 3:16
8 - Lift The Lid - 3:53
9 - You're The Violin - 3:44

EAC-Log, CUE-Sheed & NFO:

Click to open spoiler
Exact Audio Copy V1.0 beta 4 from 7. December 2014

Отчёт EAC об извлечении, выполненном 2. марта 2015, 16:52

Nazareth / Close Enough For Rock ‘n’ Roll

Дисковод: SONY CD-RW CRX230ED Adapter: 1 ID: 0

Режим чтения : Достоверность
Использование точного потока : Да
Отключение кэша аудио : Да
Использование указателей C2 : Нет

Коррекция смещения при чтении : 6
Способность читать области Lead-in и Lead-out : Нет
Заполнение пропущенных сэмплов тишиной : Да
Удаление блоков с тишиной в начале и конце : Нет
При вычислениях CRC использовались нулевые сэмплы : Да
Интерфейс : Встроенный Win32-интерфейс для Win NT/2000

Выходной формат : Внутренние WAV-операции
Формат сэмплов : 44.100 Гц; 16 бит; стерео

TOC извлечённого CD

Трек | Старт | Длительность | Начальный сектор | Конечный сектор
———————————————————————
1 | 0:00.00 | 7:50.05 | 0 | 35254
2 | 7:50.05 | 2:23.67 | 35255 | 46046
3 | 10:13.72 | 4:30.32 | 46047 | 66328
4 | 14:44.29 | 4:08.02 | 66329 | 84930
5 | 18:52.31 | 3:57.47 | 84931 | 102752
6 | 22:50.03 | 3:18.72 | 102753 | 117674
7 | 26:09.00 | 3:19.05 | 117675 | 132604
8 | 29:28.05 | 3:53.28 | 132605 | 150107
9 | 33:21.33 | 4:43.56 | 150108 | 171388

Характеристики диапазона извлечения и сообщения об ошибках

Выбранный диапазон

Имя файла F:\MusicCD\Torrent\Nazareth – Close Enough For Rock ‘n’ Roll\Nazareth – Close Enough For Rock ‘n’ Roll.wav

Пиковый уровень 100.0 %
Скорость извлечения 6.2 X
Качество диапазона 99.9 %
CRC теста DFC8FBA9
CRC копии DFC8FBA9
Копирование… OK

Ошибок не произошло

AccurateRip: сводка

Трек 1 : извлечено точно (доверие 2) [00ACE5D0] (AR v1)
Трек 2 : извлечено точно (доверие 2) [BBACD10D] (AR v1)
Трек 3 : извлечено точно (доверие 2) [95648CE1] (AR v1)
Трек 4 : извлечено точно (доверие 2) [FE8EF09A] (AR v1)
Трек 5 : извлечено точно (доверие 2) [1FCF6BC2] (AR v1)
Трек 6 : извлечено точно (доверие 2) [D8BF78A9] (AR v1)
Трек 7 : извлечено точно (доверие 2) [7A31E577] (AR v1)
Трек 8 : извлечено точно (доверие 2) [6953F199] (AR v1)
Трек 9 : извлечено точно (доверие 2) [D1F2B95D] (AR v1)

Все треки извлечены точно

Конец отчёта

—- CUETools DB Plugin V2.1.4

[CTDB TOCID: LcW7Bzn0shlW9GBdn.Tg0nMm.0M-] found
Submit result: LcW7Bzn0shlW9GBdn.Tg0nMm.0M- has been confirmed
Track | CTDB Status
1 | (3/3) Accurately ripped
2 | (3/3) Accurately ripped
3 | (3/3) Accurately ripped
4 | (3/3) Accurately ripped
5 | (3/3) Accurately ripped
6 | (3/3) Accurately ripped
7 | (3/3) Accurately ripped
8 | (3/3) Accurately ripped
9 | (3/3) Accurately ripped

==== Контрольная сумма отчёта 9805F6B2909477D5C0446D585A2557BF24FCAEF21E3B9A548B2A3CA073792AF9 ====

REM GENRE Rock
REM DATE 1976
REM DISCID 6908ED09
REM COMMENT “ExactAudioCopy v1.0b4”
PERFORMER “Nazareth”
TITLE “Close Enough For Rock ‘n’ Roll”
FILE “Nazareth – Close Enough For Rock ‘n’ Roll.flac” WAVE
TRACK 01 AUDIO
TITLE “Telegram”
PERFORMER “Nazareth”
INDEX 01 00:00:00
INDEX 02 03:06:20
INDEX 03 03:31:50
INDEX 04 05:53:50
TRACK 02 AUDIO
TITLE “Vicki”
PERFORMER “Nazareth”
INDEX 01 07:50:05
TRACK 03 AUDIO
TITLE “Homesick Again”
PERFORMER “Nazareth”
INDEX 01 10:13:72
TRACK 04 AUDIO
TITLE “Vancouver Shakedown”
PERFORMER “Nazareth”
INDEX 01 14:44:29
TRACK 05 AUDIO
TITLE “Born Under The Wrong Sign”
PERFORMER “Nazareth”
INDEX 00 18:51:31
INDEX 01 18:52:31
TRACK 06 AUDIO
TITLE “Loretta”
PERFORMER “Nazareth”
INDEX 01 22:50:03
TRACK 07 AUDIO
TITLE “Carry Out Feelings”
PERFORMER “Nazareth”
INDEX 01 26:09:00
TRACK 08 AUDIO
TITLE “Lift The Lid”
PERFORMER “Nazareth”
INDEX 00 29:27:05
INDEX 01 29:28:05
TRACK 09 AUDIO
TITLE “You’re The Violin”
PERFORMER “Nazareth”
INDEX 01 33:21:33


Spread the Download

Leave a Reply

Your email address will not be published. Required fields are marked *

Enter the text from the image below
 

This site uses Akismet to reduce spam. Learn how your comment data is processed.