Nazareth – Boogaloo




Artist: Nazareth
Year: 1998
Genre: Rock
Notes: Discogs
Add. Notes:
Cover incl.: Yes
Encoder: FLAC
Bitrate: ~1000 kBit/s (44.1 kHz/16 Bit/s)
Log & Cue incl.: Yes
Size: 640,1 MB
Password: “slam” (without ” “)


All Downloads/Hosters are compatible

Download 1
KatFile.com
Turbobit.net
FileFactory.com
Rapidgator.net
Download 2
KatFile.com
Turbobit.net
FileFactory.com
Rapidgator.net

Tracklist:

1 Light Comes Down 3:31
2 Cheerleader 3:14
3 Loverman 4:30
4 Open Up Woman 4:29
5 Talk Talk 3:52
6 Nothing So Good 5:08
7 Party In The Kremlin 3:37
8 God Save The South 6:35
9 Robber And The Roadie 4:22
10 Waiting 5:46
11 May Heaven Keep You 5:46

EAC-Log, CUE-Sheed & NFO:

Click to open spoiler
Exact Audio Copy V1.0 beta 3 from 29. August 2011

EAC extraction logfile from 14. March 2014, 1:06

Nazareth / Boogaloo

Used drive : SONY BD RW BDX-S600U Adapter: 2 ID: 1

Read mode : Secure
Utilize accurate stream : Yes
Defeat audio cache : Yes
Make use of C2 pointers : No

Read offset correction : 48
Overread into Lead-In and Lead-Out : No
Fill up missing offset samples with silence : Yes
Delete leading and trailing silent blocks : No
Null samples used in CRC calculations : Yes
Used interface : Native Win32 interface for Win NT & 2000

Used output format : User Defined Encoder
Selected bitrate : 128 kBit/s
Quality : High
Add ID3 tag : No
Command line compressor : C:\Program Files (x86)\Exact Audio Copy\Flac\flac.exe
Additional command line options : -V -8 -T “Date=%year%” -T “Genre=%genre%” %source%

TOC of the extracted CD

Track | Start | Length | Start sector | End sector
———————————————————
1 | 0:00.00 | 3:32.47 | 0 | 15946
2 | 3:32.47 | 3:15.15 | 15947 | 30586
3 | 6:47.62 | 4:29.58 | 30587 | 50819
4 | 11:17.45 | 4:29.10 | 50820 | 71004
5 | 15:46.55 | 3:52.02 | 71005 | 88406
6 | 19:38.57 | 5:07.30 | 88407 | 111461
7 | 24:46.12 | 3:36.63 | 111462 | 127724
8 | 28:23.00 | 6:35.12 | 127725 | 157361
9 | 34:58.12 | 4:22.30 | 157362 | 177041
10 | 39:20.42 | 5:45.53 | 177042 | 202969
11 | 45:06.20 | 5:46.45 | 202970 | 228964

Range status and errors

Selected range

Filename D:\Nazareth discography\Studio\1998. Nazareth – Boogaloo\1998. Nazareth – Boogaloo (Steamhammer SPV 085-18502,Germany)\Nazareth – Boogaloo.wav

Peak level 98.2 %
Extraction speed 6.6 X
Range quality 100.0 %
Test CRC A0E9F6B1
Copy CRC A0E9F6B1
Copy OK

No errors occurred

AccurateRip summary

Track 1 accurately ripped (confidence 8) [BCFD9FF5] (AR v2)
Track 2 accurately ripped (confidence 8) [86855A0B] (AR v2)
Track 3 accurately ripped (confidence 8) [1667123F] (AR v2)
Track 4 accurately ripped (confidence 8) [6947C4C3] (AR v2)
Track 5 accurately ripped (confidence 8) [721847B8] (AR v2)
Track 6 accurately ripped (confidence 8) [E6E645BE] (AR v2)
Track 7 accurately ripped (confidence 8) [D108F06D] (AR v2)
Track 8 accurately ripped (confidence 8) [E4397A5E] (AR v2)
Track 9 accurately ripped (confidence 8) [9ABF9508] (AR v2)
Track 10 accurately ripped (confidence 8) [8144F90F] (AR v2)
Track 11 accurately ripped (confidence 8) [9B0DA511] (AR v2)

All tracks accurately ripped

End of status report

—- CUETools DB Plugin V2.1.4

[CTDB TOCID: erHLK0E5cPuuZhENUH9SLtyEIGs-] found
Submit result: erHLK0E5cPuuZhENUH9SLtyEIGs- has been confirmed
Track | CTDB Status
1 | (12/14) Accurately ripped
2 | (12/14) Accurately ripped
3 | (12/14) Accurately ripped
4 | (12/14) Accurately ripped
5 | (12/14) Accurately ripped
6 | (12/14) Accurately ripped
7 | (12/14) Accurately ripped
8 | (12/14) Accurately ripped
9 | (12/14) Accurately ripped
10 | (11/14) Accurately ripped
11 | (11/14) Accurately ripped

==== Log checksum 9C33A9959E2F5DAB68222104D1BD640D5B1470DD73F7F48D7548EC9AD3262895 ====

REM GENRE Rock
REM DATE 1998
REM DISCID 8E0BEC0B
REM COMMENT “ExactAudioCopy v1.0b3”
PERFORMER “Nazareth”
TITLE “Boogaloo”
FILE “Nazareth – Boogaloo.flac” WAVE
TRACK 01 AUDIO
TITLE “Light Comes Down”
PERFORMER “Nazareth”
ISRC DEA459804650
INDEX 01 00:00:00
TRACK 02 AUDIO
TITLE “Cheerleader”
PERFORMER “Nazareth”
ISRC DEA459804660
INDEX 00 03:30:47
INDEX 01 03:32:47
TRACK 03 AUDIO
TITLE “Loverman”
PERFORMER “Nazareth”
ISRC DEA459804670
INDEX 00 06:45:20
INDEX 01 06:47:62
TRACK 04 AUDIO
TITLE “Open Up Woman”
PERFORMER “Nazareth”
ISRC DEA459804680
INDEX 00 11:14:72
INDEX 01 11:17:45
TRACK 05 AUDIO
TITLE “Talk Talk”
PERFORMER “Nazareth”
INDEX 01 15:46:55
TRACK 06 AUDIO
TITLE “Nothing So Good”
PERFORMER “Nazareth”
ISRC DEA459804700
INDEX 00 19:36:10
INDEX 01 19:38:57
TRACK 07 AUDIO
TITLE “Party In The Kremlin”
PERFORMER “Nazareth”
ISRC DEA459804710
INDEX 00 24:44:00
INDEX 01 24:46:12
TRACK 08 AUDIO
TITLE “God Save The South”
PERFORMER “Nazareth”
ISRC DEA459804720
INDEX 00 28:21:65
INDEX 01 28:23:00
TRACK 09 AUDIO
TITLE “Robber And The Roadie”
PERFORMER “Nazareth”
ISRC DEA459804730
INDEX 00 34:55:47
INDEX 01 34:58:12
TRACK 10 AUDIO
TITLE “Waiting”
PERFORMER “Nazareth”
INDEX 01 39:20:42
TRACK 11 AUDIO
TITLE “May Heaven Keep You”
PERFORMER “Nazareth”
ISRC DEA459804750
INDEX 00 45:04:07
INDEX 01 45:06:20


Leave a Reply

Your email address will not be published. Required fields are marked *

Enter the text from the image below
 

This site uses Akismet to reduce spam. Learn how your comment data is processed.