Nazareth – At The Beeb




Artist: Nazareth
Year: 1998
Genre: Rock
Notes: Discogs
Add. Notes:
Cover incl.: Yes
Encoder: FLAC
Bitrate: ~900 kBit/s (44.1 kHz/16 Bit/s)
Log & Cue incl.: Yes
Size: 1011,6 MB
Password: “slam” (without ” “)


All Downloads/Hosters are compatible

Download 1
KatFile.com
Turbobit.net
FileFactory.com
Rapidgator.net
Download 2
KatFile.com
Turbobit.net
FileFactory.com
Rapidgator.net

Tracklist:

Studio
1-1 Called Her Name 4:09
1-2 Fool About You 2:48
1-3 Hard Living 2:59
1-4 Goin' Down 4:01
1-5 Razamanaz 4:15
1-6 Broken Down Angel 4:03
1-7 Night Woman 3:25
1-8 Too Bad Too Sad 2:50
1-9 Turn On Your Receiver 3:36
1-10 Bad Bad Boy 3:34
1-11 Shapes Of Things 6:17
1-12 Silver Dollar Forger 5:36
1-13 Glad When You're Gone 4:16
1-14 Jet Lag 6:39
Live
2-1 Dear John 3:51
2-2 Morning Dew 6:47
2-3 Vigilante Man 5:32
2-4 Paper Sun 5:17
2-5 Woke Up This Morning / Boogie 9:45
2-6 Love Hurts 4:21
2-7 Expect No Mercy 3:44
2-8 This Flight Tonight 3:41
2-9 Whiskey Drinking Woman / Hair Of The Dog 7:14
2-10 Teenage Nervous Breakdown 3:40
2-11 Road Ladies 7:04

EAC-Log, CUE-Sheed & NFO:

Click to open spoiler
Exact Audio Copy V1.0 beta 3 from 29. August 2011

EAC extraction logfile from 21. March 2014, 0:03

Nazareth / At The Beeb -cd 1

Used drive : SONY BD RW BDX-S600U Adapter: 2 ID: 1

Read mode : Secure
Utilize accurate stream : Yes
Defeat audio cache : Yes
Make use of C2 pointers : No

Read offset correction : 48
Overread into Lead-In and Lead-Out : No
Fill up missing offset samples with silence : Yes
Delete leading and trailing silent blocks : No
Null samples used in CRC calculations : Yes
Used interface : Native Win32 interface for Win NT & 2000

Used output format : User Defined Encoder
Selected bitrate : 128 kBit/s
Quality : High
Add ID3 tag : No
Command line compressor : C:\Program Files (x86)\Exact Audio Copy\Flac\flac.exe
Additional command line options : -V -8 -T “Date=%year%” -T “Genre=%genre%” %source%

TOC of the extracted CD

Track | Start | Length | Start sector | End sector
———————————————————
1 | 0:00.00 | 4:09.57 | 0 | 18731
2 | 4:09.57 | 2:48.20 | 18732 | 31351
3 | 6:58.02 | 2:59.15 | 31352 | 44791
4 | 9:57.17 | 4:01.70 | 44792 | 62936
5 | 13:59.12 | 4:15.20 | 62937 | 82081
6 | 18:14.32 | 4:03.00 | 82082 | 100306
7 | 22:17.32 | 3:25.30 | 100307 | 115711
8 | 25:42.62 | 2:50.18 | 115712 | 128479
9 | 28:33.05 | 3:36.45 | 128480 | 144724
10 | 32:09.50 | 3:34.57 | 144725 | 160831
11 | 35:44.32 | 6:17.68 | 160832 | 189174
12 | 42:02.25 | 5:36.00 | 189175 | 214374
13 | 47:38.25 | 4:16.57 | 214375 | 233631
14 | 51:55.07 | 6:39.33 | 233632 | 263589

Range status and errors

Selected range

Filename D:\Nazareth discography\Live\1998. Nazareth – Live At The Beeb\1998. Nazareth – Live At The Beeb (Reef Rec., SRDCD707,England)\disc1\Nazareth – At The Beeb -cd 1.wav

Peak level 98.8 %
Extraction speed 6.9 X
Range quality 99.9 %
Test CRC 909C9FA2
Copy CRC 909C9FA2
Copy OK

No errors occurred

AccurateRip summary

Track 1 accurately ripped (confidence 4) [F6445413] (AR v2)
Track 2 accurately ripped (confidence 4) [200F1B3F] (AR v2)
Track 3 accurately ripped (confidence 4) [A34BD1F9] (AR v2)
Track 4 accurately ripped (confidence 4) [A621478C] (AR v2)
Track 5 accurately ripped (confidence 4) [2291C94B] (AR v2)
Track 6 accurately ripped (confidence 4) [B909E6D4] (AR v2)
Track 7 accurately ripped (confidence 4) [E1C59659] (AR v2)
Track 8 accurately ripped (confidence 4) [FE78AE7E] (AR v2)
Track 9 accurately ripped (confidence 4) [59EDC1DF] (AR v2)
Track 10 accurately ripped (confidence 4) [001D1D80] (AR v2)
Track 11 accurately ripped (confidence 4) [7FC6DD9D] (AR v2)
Track 12 accurately ripped (confidence 4) [41EC2C96] (AR v2)
Track 13 accurately ripped (confidence 4) [1CF19AAC] (AR v2)
Track 14 accurately ripped (confidence 4) [08506958] (AR v2)

All tracks accurately ripped

End of status report

—- CUETools DB Plugin V2.1.4

[CTDB TOCID: IGzgGRBFTdnfcKLrZU9NzOCbbts-] found
Submit result: IGzgGRBFTdnfcKLrZU9NzOCbbts- has been confirmed
Track | CTDB Status
1 | (4/4) Accurately ripped
2 | (4/4) Accurately ripped
3 | (4/4) Accurately ripped
4 | (4/4) Accurately ripped
5 | (4/4) Accurately ripped
6 | (4/4) Accurately ripped
7 | (4/4) Accurately ripped
8 | (4/4) Accurately ripped
9 | (4/4) Accurately ripped
10 | (4/4) Accurately ripped
11 | (4/4) Accurately ripped
12 | (4/4) Accurately ripped
13 | (4/4) Accurately ripped
14 | (4/4) Accurately ripped

==== Log checksum 8E3DEBD6CDC88FB3D86C0B6FD5E4F0141451C0BABD71CDEAAE4ED4708E710308 ====

Exact Audio Copy V1.0 beta 3 from 29. August 2011

EAC extraction logfile from 21. March 2014, 0:25

Nazareth / At The Beeb- cd 2

Used drive : SONY BD RW BDX-S600U Adapter: 2 ID: 1

Read mode : Secure
Utilize accurate stream : Yes
Defeat audio cache : Yes
Make use of C2 pointers : No

Read offset correction : 48
Overread into Lead-In and Lead-Out : No
Fill up missing offset samples with silence : Yes
Delete leading and trailing silent blocks : No
Null samples used in CRC calculations : Yes
Used interface : Native Win32 interface for Win NT & 2000

Used output format : User Defined Encoder
Selected bitrate : 128 kBit/s
Quality : High
Add ID3 tag : No
Command line compressor : C:\Program Files (x86)\Exact Audio Copy\Flac\flac.exe
Additional command line options : -V -8 -T “Date=%year%” -T “Genre=%genre%” %source%

TOC of the extracted CD

Track | Start | Length | Start sector | End sector
———————————————————
1 | 0:00.00 | 3:51.17 | 0 | 17341
2 | 3:51.17 | 6:47.47 | 17342 | 47913
3 | 10:38.64 | 5:32.41 | 47914 | 72854
4 | 16:11.30 | 5:17.30 | 72855 | 96659
5 | 21:28.60 | 9:45.52 | 96660 | 140586
6 | 31:14.37 | 4:21.03 | 140587 | 160164
7 | 35:35.40 | 3:44.00 | 160165 | 176964
8 | 39:19.40 | 3:41.60 | 176965 | 193599
9 | 43:01.25 | 7:14.50 | 193600 | 226199
10 | 50:16.00 | 3:40.10 | 226200 | 242709
11 | 53:56.10 | 7:04.40 | 242710 | 274549

Range status and errors

Selected range

Filename D:\Nazareth discography\Live\1998. Nazareth – Live At The Beeb\1998. Nazareth – Live At The Beeb (Reef Rec., SRDCD707,England)\disc2\Nazareth – At The Beeb- cd 2.wav

Peak level 100.0 %
Extraction speed 7.0 X
Range quality 100.0 %
Test CRC 860E9CA7
Copy CRC 860E9CA7
Copy OK

No errors occurred

AccurateRip summary

Track 1 accurately ripped (confidence 4) [DDDEFA62] (AR v2)
Track 2 accurately ripped (confidence 4) [32226EA5] (AR v2)
Track 3 accurately ripped (confidence 4) [DDD8E153] (AR v2)
Track 4 accurately ripped (confidence 4) [E4D51A79] (AR v2)
Track 5 accurately ripped (confidence 4) [59FDDDAD] (AR v2)
Track 6 accurately ripped (confidence 4) [8AFD105C] (AR v2)
Track 7 accurately ripped (confidence 4) [E632B057] (AR v2)
Track 8 accurately ripped (confidence 4) [675C33EE] (AR v2)
Track 9 accurately ripped (confidence 4) [9D9F02D9] (AR v2)
Track 10 accurately ripped (confidence 4) [4959E98F] (AR v2)
Track 11 accurately ripped (confidence 4) [38596B95] (AR v2)

All tracks accurately ripped

End of status report

—- CUETools DB Plugin V2.1.4

[CTDB TOCID: jVxt9vn5bqR78Hc8l19RkPpHZvw-] found
Submit result: jVxt9vn5bqR78Hc8l19RkPpHZvw- has been confirmed
Track | CTDB Status
1 | (3/3) Accurately ripped
2 | (3/3) Accurately ripped
3 | (3/3) Accurately ripped
4 | (3/3) Accurately ripped
5 | (3/3) Accurately ripped
6 | (3/3) Accurately ripped
7 | (3/3) Accurately ripped
8 | (3/3) Accurately ripped
9 | (3/3) Accurately ripped
10 | (3/3) Accurately ripped
11 | (2/3) Accurately ripped, or (1/3) differs in 6138 samples @07:04:15-07:04:24

==== Log checksum 009F83659804DAFACCB59DFD8B45DBE85ED4B3C67D0BDF98FC083A6224A552D2 ====

REM GENRE Rock
REM DATE 1998
REM DISCID 900E4C0B
REM COMMENT “ExactAudioCopy v1.0b3”
CATALOG 0000000000000
PERFORMER “Nazareth”
TITLE “At The Beeb- cd 2”
FILE “Nazareth – At The Beeb- cd 2.flac” WAVE
TRACK 01 AUDIO
TITLE “Dear John”
PERFORMER “Nazareth”
INDEX 01 00:00:00
TRACK 02 AUDIO
TITLE “Morning Dew”
PERFORMER “Nazareth”
INDEX 01 03:51:17
TRACK 03 AUDIO
TITLE “Vigilante Man”
PERFORMER “Nazareth”
INDEX 00 10:37:55
INDEX 01 10:38:64
TRACK 04 AUDIO
TITLE “Paper Sun”
PERFORMER “Nazareth”
INDEX 01 16:11:30
TRACK 05 AUDIO
TITLE “Woke Up This Morning – Boogie”
PERFORMER “Nazareth”
INDEX 01 21:28:60
TRACK 06 AUDIO
TITLE “Love Hurts”
PERFORMER “Nazareth”
INDEX 00 31:12:60
INDEX 01 31:14:37
TRACK 07 AUDIO
TITLE “Expect No Mercy”
PERFORMER “Nazareth”
INDEX 01 35:35:40
TRACK 08 AUDIO
TITLE “This Flight Tonight”
PERFORMER “Nazareth”
INDEX 01 39:19:40
TRACK 09 AUDIO
TITLE “Whiskey Drinking Woman – Hair Of The Dog”
PERFORMER “Nazareth”
INDEX 00 43:00:40
INDEX 01 43:01:25
TRACK 10 AUDIO
TITLE “Teenage Nervous Breakdown”
PERFORMER “Nazareth”
INDEX 01 50:16:00
TRACK 11 AUDIO
TITLE “Road Ladies”
PERFORMER “Nazareth”
INDEX 00 53:54:50
INDEX 01 53:56:10

REM GENRE Rock
REM DATE 1998
REM DISCID B40DBA0E
REM COMMENT “ExactAudioCopy v1.0b3”
CATALOG 0000000000000
PERFORMER “Nazareth”
TITLE “At The Beeb -cd 1”
FILE “Nazareth – At The Beeb -cd 1.flac” WAVE
TRACK 01 AUDIO
TITLE “Called Her Name”
PERFORMER “Nazareth”
INDEX 01 00:00:00
TRACK 02 AUDIO
TITLE “Fool About You”
PERFORMER “Nazareth”
INDEX 00 04:07:45
INDEX 01 04:09:57
TRACK 03 AUDIO
TITLE “Hard Living”
PERFORMER “Nazareth”
INDEX 00 06:56:30
INDEX 01 06:58:02
TRACK 04 AUDIO
TITLE “Goin’ Down”
PERFORMER “Nazareth”
INDEX 00 09:55:47
INDEX 01 09:57:17
TRACK 05 AUDIO
TITLE “Razamanaz”
PERFORMER “Nazareth”
INDEX 00 13:57:40
INDEX 01 13:59:12
TRACK 06 AUDIO
TITLE “Broken Down Angel”
PERFORMER “Nazareth”
INDEX 00 18:12:57
INDEX 01 18:14:32
TRACK 07 AUDIO
TITLE “Night Woman”
PERFORMER “Nazareth”
INDEX 00 22:15:60
INDEX 01 22:17:32
TRACK 08 AUDIO
TITLE “Too Bad Too Sad”
PERFORMER “Nazareth”
INDEX 00 25:41:15
INDEX 01 25:42:62
TRACK 09 AUDIO
TITLE “Turn On Your Receiver”
PERFORMER “Nazareth”
INDEX 00 28:31:32
INDEX 01 28:33:05
TRACK 10 AUDIO
TITLE “Bad Bad Boy”
PERFORMER “Nazareth”
INDEX 00 32:08:00
INDEX 01 32:09:50
TRACK 11 AUDIO
TITLE “Shapes Of Things”
PERFORMER “Nazareth”
INDEX 00 35:42:57
INDEX 01 35:44:32
TRACK 12 AUDIO
TITLE “Silver Dollar Forger”
PERFORMER “Nazareth”
INDEX 00 42:00:55
INDEX 01 42:02:25
TRACK 13 AUDIO
TITLE “Glad When You’re Gone”
PERFORMER “Nazareth”
INDEX 00 47:36:52
INDEX 01 47:38:25
TRACK 14 AUDIO
TITLE “Jet Lag”
PERFORMER “Nazareth”
INDEX 00 51:53:34
INDEX 01 51:55:07
r


Leave a Reply

Your email address will not be published. Required fields are marked *

Enter the text from the image below
 

This site uses Akismet to reduce spam. Learn how your comment data is processed.