Nazareth – 2XS




Artist: Nazareth
Year: 1982/1990
Genre: Rock
Notes: Discogs
Add. Notes:
Cover incl.: Yes
Encoder: FLAC
Bitrate: ~900 kBit/s (44.1 kHz/16 Bit/s)
Log & Cue incl.: Yes
Size: 378 MB
Password: “slam” (without ” “)


All Downloads/Hosters are compatible

Download 1
KatFile.com
Turbobit.net
Rapidgator.net
FileFactory.com
Download 2
KatFile.com
Turbobit.net
Rapidgator.net
FileFactory.com

Tracklist:

01. Love Leads To Madness 04:08 
02. Boys In The Band (Agnew, 
Charlton, McCafferty) 
03:06 
03. You Love Another 03:58 
04. Gatecrash (Charlton, 
McCafferty, Sweet, Rankin) 
03:19 
05. Games 04:48 
06. Back To The Trenches (Agnew, 
Charlton, McCafferty) 
04:03 
07. Dream On 03:28 
08. Lonely In The Night (Agnew, 
Charlton, Sweet, 
Rankin) 04:22 
09. Preservation (Agnew, Charlton, 
McCafferty) 04:03 
10. Take The Rap 02:42 
11. Mexico (Agnew, McCafferty, 
Sweet, Rankin) 02:51 

EAC-Log, CUE-Sheed & NFO:

Click to open spoiler
Exact Audio Copy V1.0 beta 3 from 29. August 2011

EAC extraction logfile from 8. August 2014, 1:11

Nazareth / 2xs

Used drive : Optiarc DVD RW AD-7240S Adapter: 1 ID: 1

Read mode : Secure
Utilize accurate stream : Yes
Defeat audio cache : Yes
Make use of C2 pointers : No

Read offset correction : 48
Overread into Lead-In and Lead-Out : No
Fill up missing offset samples with silence : Yes
Delete leading and trailing silent blocks : No
Null samples used in CRC calculations : Yes
Used interface : Native Win32 interface for Win NT & 2000

Used output format : User Defined Encoder
Selected bitrate : 128 kBit/s
Quality : High
Add ID3 tag : No
Command line compressor : C:\Program Files (x86)\Exact Audio Copy\Flac\flac.exe
Additional command line options : -V -8 -T “Date=%year%” -T “Genre=%genre%” %source%

TOC of the extracted CD

Track | Start | Length | Start sector | End sector
———————————————————
1 | 0:00.32 | 4:08.38 | 32 | 18669
2 | 4:08.70 | 3:06.60 | 18670 | 32679
3 | 7:15.55 | 3:58.40 | 32680 | 50569
4 | 11:14.20 | 3:19.62 | 50570 | 65556
5 | 14:34.07 | 4:48.45 | 65557 | 87201
6 | 19:22.52 | 4:03.03 | 87202 | 105429
7 | 23:25.55 | 3:28.07 | 105430 | 121036
8 | 26:53.62 | 4:22.38 | 121037 | 140724
9 | 31:16.25 | 4:03.05 | 140725 | 158954
10 | 35:19.30 | 2:42.27 | 158955 | 171131
11 | 38:01.57 | 2:51.40 | 171132 | 183996

Range status and errors

Selected range

Filename D:\Nazareth discography\Studio\1982. Nazareth – 2xS\1982. Nazareth – 2xS (Castle Comm.,CLACD 217, UK )\Nazareth – 2xs.wav

Peak level 100.0 %
Extraction speed 3.7 X
Range quality 100.0 %
Test CRC 3A716F45
Copy CRC 3A716F45
Copy OK

No errors occurred

AccurateRip summary

Track 1 cannot be verified as accurate (confidence 12) [8469005C], AccurateRip returned [D6571C6E] (AR v2)
Track 2 cannot be verified as accurate (confidence 11) [6347A1DA], AccurateRip returned [9BD453DF] (AR v2)
Track 3 cannot be verified as accurate (confidence 11) [F3C6D944], AccurateRip returned [D0BEC842] (AR v2)
Track 4 cannot be verified as accurate (confidence 11) [3EE1F23E], AccurateRip returned [703EADAF] (AR v2)
Track 5 cannot be verified as accurate (confidence 14) [5ED330BA], AccurateRip returned [B906C25E] (AR v2)
Track 6 cannot be verified as accurate (confidence 12) [DB9D3A79], AccurateRip returned [DF19C8B1] (AR v2)
Track 7 cannot be verified as accurate (confidence 13) [D7845A1B], AccurateRip returned [1B621AC6] (AR v2)
Track 8 cannot be verified as accurate (confidence 12) [232BF794], AccurateRip returned [7AF3AB79] (AR v2)
Track 9 cannot be verified as accurate (confidence 12) [18587946], AccurateRip returned [912F2D11] (AR v2)
Track 10 cannot be verified as accurate (confidence 11) [9D0770CE], AccurateRip returned [03C5D11C] (AR v2)
Track 11 cannot be verified as accurate (confidence 11) [013700CE], AccurateRip returned [2EE8A377] (AR v2)

No tracks could be verified as accurate
You may have a different pressing from the one(s) in the database

End of status report

—- CUETools DB Plugin V2.1.4

[CTDB TOCID: VA4OS3IlTFWkkJt_jip60ZS1NDo-] found
Submit result: VA4OS3IlTFWkkJt_jip60ZS1NDo- has been confirmed
Track | CTDB Status
1 | (4/4) Accurately ripped
2 | (4/4) Accurately ripped
3 | (4/4) Accurately ripped
4 | (4/4) Accurately ripped
5 | (4/4) Accurately ripped
6 | (4/4) Accurately ripped
7 | (4/4) Accurately ripped
8 | (4/4) Accurately ripped
9 | (4/4) Accurately ripped
10 | (4/4) Accurately ripped
11 | (4/4) Accurately ripped

==== Log checksum 7E447980282EC3CE535BA9733FD96269089F9B794DE113455BC2C58B926C05B4 ====

REM GENRE “Hard Rock”
REM DATE 1982
REM DISCID 9109950B
REM COMMENT “ExactAudioCopy v1.0b3”
CATALOG 0000000000000
PERFORMER “Nazareth”
TITLE “2xs”
FILE “Nazareth – 2xs.flac” WAVE
TRACK 01 AUDIO
TITLE “Love Leads To Madness”
PERFORMER “Nazareth”
INDEX 00 00:00:00
INDEX 01 00:00:32
TRACK 02 AUDIO
TITLE “Boys In The Band”
PERFORMER “Nazareth”
INDEX 00 04:06:02
INDEX 01 04:08:70
TRACK 03 AUDIO
TITLE “You Love Another”
PERFORMER “Nazareth”
INDEX 00 07:13:32
INDEX 01 07:15:55
TRACK 04 AUDIO
TITLE “Gatecrash”
PERFORMER “Nazareth”
INDEX 00 11:12:55
INDEX 01 11:14:20
TRACK 05 AUDIO
TITLE “Games”
PERFORMER “Nazareth”
INDEX 01 14:34:07
TRACK 06 AUDIO
TITLE “Back To The Trenches”
PERFORMER “Nazareth”
INDEX 00 19:21:42
INDEX 01 19:22:52
TRACK 07 AUDIO
TITLE “Dream On”
PERFORMER “Nazareth”
INDEX 00 23:23:02
INDEX 01 23:25:55
TRACK 08 AUDIO
TITLE “Lonely In The Night”
PERFORMER “Nazareth”
INDEX 00 26:50:55
INDEX 01 26:53:62
TRACK 09 AUDIO
TITLE “Preservation”
PERFORMER “Nazareth”
INDEX 01 31:16:25
TRACK 10 AUDIO
TITLE “Take The Rap”
PERFORMER “Nazareth”
INDEX 00 35:18:00
INDEX 01 35:19:30
TRACK 11 AUDIO
TITLE “Mexico”
PERFORMER “Nazareth”
INDEX 00 38:00:38
INDEX 01 38:01:57


Leave a Reply

Your email address will not be published. Required fields are marked *

This site uses Akismet to reduce spam. Learn how your comment data is processed.